Welcome Guest ( Log In | Register )

> Releases Upload / Добавление релизов

Добавить релиз тут / Click here to add release
Рекомендованные обменники / Recommended file shares

> Ordeals - Choose Death [ep] (2019), Black/Death Metal
post Aug 15 2019, 13:27:51
Post #1

Правь статус, ####!111
**************
Group: Металариец
Posts: 3,822
Releases: 923
From: Brazil
On Forums: 7 years 6 months
Thanks: 34183 time(s)
Brazil


(IMG:https://metalarea.org/images/audiocovers/2019_Aug/acov_tid325741_thumb.jpg)

*Artist: Ordeals
*Album: Choose Death [ep]
*Year: 2019
*Genre: Black/Death Metal
*Country: United States (IMG:https://metalarea.org/forum/style_images/flags/United%20States.png)
*Format: mp3@CBR320kbps
*Size: 33MB

Tracklist:
1. Ordealsplaga I 01:21
2. A Throttled Dream 04:19
3. Ordealsplaga II 01:11
4. Choose Death 04:45
******************************
Total playing time: 11:36



Technical info
(IMG:https://metalarea.org/images/spectrogram/2019_Aug/f7425178329cb2aad705570d73a0f286.png)
Input File: 01 Ordealsplaga I.mp3
Channels : 2
Sample Rate : 44100
Precision : 16-bit
Duration : 00:01:21.98 = 3615142 samples = 6148.2 CDDA sectors
File Size : 3.44M
Bit Rate : 335k
Sample Encoding: MPEG audio (layer I, II or III)
Comments :
Title=Ordealsplaga I
Artist=Ordeals
Album=Choose Death
Tracknumber=1
Year=2019



Register


Go to the top of the page
  Insert nick Quick quote
+Quote Post
 
Start new topic
Replies (1 - 1)
post Aug 16 2019, 07:14:51
Post #2

Правь статус, ####!111
**************
Group: Металариец
Posts: 3,822
Releases: 923
From: Brazil
On Forums: 7 years 6 months
Thanks: 34183 time(s)
Brazil


Register

mp3@CBR320kbps


Thanks:
Go to the top of the page
  Insert nick Quick quote
+Quote Post

Reply to this topicStart new topic
1 User(s) are reading this topic (1 Guests and 0 Anonymous Users)
0 Members:

 



- Lo-Fi Version Support form
Copyrights and abuse reports form
Time is now: 24th August 2019 - 03:12:52