Welcome Guest ( Log In | Register )

> Releases Upload / Добавление релизов

Добавить релиз тут / Click here to add release
Рекомендованные обменники / Recommended file shares

 
Reply to this topicStart new topic
> Nethergate - Dimensional Purgatory [ep] (2019), Death Metal
post Aug 15 2019, 14:39:50
Post #1

Правь статус, ####!111
**************
Group: Металариец
Posts: 18,200
Releases: 12307
From: Г.Харьков
On Forums: 7 years 3 months
Thanks: 207430 time(s)
Unknown


(IMG:https://metalarea.org/images/audiocovers/2019_Aug/acov_tid325742_thumb.jpg)

*Artist: Nethergate
*Album: Dimensional Purgatory [ep]
*Year: 2019
*Genre: Death Metal
*Country: United States (IMG:https://metalarea.org/forum/style_images/flags/United%20States.png)
*Format: mp3@CBR320kbps
*Size: 58MB

Tracklist:
01. Höllentore
02. Fear the Spear
03. Solace in Shade
04. Sunken Sanctum
05. Chronic Lacerator
06. Dimensional Purgatory
******************************
Total playing time: 22:31




Extended info
Vocals/Bass: Matt Soper
Guitar: Paul Trunk
Drums: Kyle Wagner
Guitar: Jacob Schumaker


Technical info
(IMG:https://metalarea.org/images/spectrogram/2019_Aug/b6a7fbe4a0fce7408e7f29a458da4f1a.png)
Input File: 03 Solace in Shade.mp3
Channels : 2
Sample Rate : 44100
Precision : 16-bit
Duration : 00:00:00.25 = 10981 samples = 18.6752 CDDA sectors
File Size : 11.0M
Bit Rate : 354M
Sample Encoding: MPEG audio (layer I, II or III)
Comments :
Title=Solace in Shade
Artist=Nethergate
Album=Dimensional Purgatory
Tracknumber=3/6
Year=2019
Genre=Metal
Discnumber=1/1



Register


Go to the top of the page
  Insert nick Quick quote
+Quote Post

Reply to this topicStart new topic
1 User(s) are reading this topic (1 Guests and 0 Anonymous Users)
0 Members:

 



- Lo-Fi Version Support form
Copyrights and abuse reports form
Time is now: 24th August 2019 - 03:13:35