Welcome Guest ( Log In | Register )

> Releases Upload / Добавление релизов

Добавить релиз тут / Click here to add release
Рекомендованные обменники / Recommended file shares

> Elkir - Elkir [ep] (2019), Folk Metal
post Aug 15 2019, 18:41:17
Post #1

Девять Литров
*********
Group: Металариец
Posts: 922
Releases: 337
From: Саранск
On Forums: 8 years 3 months
Thanks: 2637 time(s)
Russian Federation


(IMG:https://metalarea.org/images/audiocovers/2019_Aug/acov_tid325744_thumb.jpg)

*Artist: Elkir
*Album: Elkir [ep]
*Year: 2019
*Genre: Folk Metal
*Country: Italy (IMG:https://metalarea.org/forum/style_images/flags/Italy.png)
*Format: mp3@CBR320kbps
*Size: 49MB

Tracklist:
1. Overcome the Edge 04:33
2. I Will Return 03:34
3. Faun Dance 04:03
4. Seven Warriors 03:55
5. Last Request 05:10
******************************
Total playing time: 21:15

(IMG:https://metalarea.org/images/youtube.png)



Technical info
(IMG:https://metalarea.org/images/spectrogram/2019_Aug/4ba2f60b3ef2ac9005e926cd1b8e8b2f.png)
Input File: 1 - Overcome the Edge.mp3
Channels : 2
Sample Rate : 44100
Precision : 16-bit
Duration : 00:04:33.89 = 12078329 samples = 20541.4 CDDA sectors
File Size : 11.0M
Bit Rate : 320k
Sample Encoding: MPEG audio (layer I, II or III)
Comments :
Title=Overcome the Edge
Artist=Elkir
Album=Elkir (EP)
Tracknumber=1
Year=2019
Genre=Folk Metal



Register


Go to the top of the page
  Insert nick Quick quote
+Quote Post
 
Start new topic
Replies (1 - 5)
post Aug 15 2019, 21:37:12
Post #2

Маньяк
**********
Group: Металариец
Posts: 1,082
Releases: 37
From: великий город Питер
On Forums: 13 years 8 months
Thanks: 1859 time(s)
Russian Federation


вокал всю малину портит...... (IMG:style_emoticons/default/smile2.gif)
Go to the top of the page
  Insert nick Quick quote
+Quote Post
post Aug 15 2019, 23:55:40
Post #3

Правь статус, ####!111
**************
Group: Металариец
Posts: 3,976
Releases: 0
From: Одесса
On Forums: 11 years 5 months
Thanks: 2085 time(s)
Unknown


(IMG:style_emoticons/default/m0114.gif)
Go to the top of the page
  Insert nick Quick quote
+Quote Post
post Aug 15 2019, 23:57:50
Post #4

Правь статус, ####!111
**************
Group: Металариец
Posts: 42,462
Releases: 644
On Forums: 10 years 2 months
Thanks: 33322 time(s)
Russian Federation


ЦИТАТА(babanguida @ Aug 16 2019, 02:55:40) *


Never knew you like that pseudo heavy circus called folk metal (IMG:style_emoticons/default/25.gif)
Go to the top of the page
  Insert nick Quick quote
+Quote Post
post Aug 16 2019, 19:05:53
Post #5

Маньяк
**********
Group: Металариец
Posts: 1,234
Releases: 0
From: Russian Federation - St.Petersburg
On Forums: 10 years 5 months
Thanks: 285 time(s)
Russian Federation


Мда, female vocal мягко говоря не очень... (IMG:style_emoticons/default/21.gif)
Go to the top of the page
  Insert nick Quick quote
+Quote Post
post Aug 16 2019, 19:13:19
Post #6

Правь статус, ####!111
**************
Group: Металариец
Posts: 3,976
Releases: 0
From: Одесса
On Forums: 11 years 5 months
Thanks: 2085 time(s)
Unknown


QUOTE(vosmidesijatye @ Aug 16 2019, 00:57:50) *
Never knew you like that pseudo heavy circus called folk metal (IMG:style_emoticons/default/25.gif)

I'm unmasked
Go to the top of the page
  Insert nick Quick quote
+Quote Post

Reply to this topicStart new topic
1 User(s) are reading this topic (1 Guests and 0 Anonymous Users)
0 Members:

 



- Lo-Fi Version Support form
Copyrights and abuse reports form
Time is now: 24th August 2019 - 03:25:37