Welcome Guest ( Log In | Register )

> Releases Upload / Добавление релизов

Добавить релиз тут / Click here to add release
Рекомендованные обменники / Recommended file shares

> Anthares - Addicted To Chaos (2019), Thrash Metal
post Aug 15 2019, 19:36:59
Post #1

Правь статус, ####!111
**************
Group: Металариец
Posts: 18,200
Releases: 12307
From: Г.Харьков
On Forums: 7 years 3 months
Thanks: 207433 time(s)
Unknown


(IMG:https://metalarea.org/images/audiocovers/2019_Aug/acov_tid325745_thumb.jpg)

*Artist: Anthares
*Album: Addicted To Chaos
*Year: 2019
*Genre: Thrash Metal
*Country: France (IMG:https://metalarea.org/forum/style_images/flags/France.png)
*Format: mp3@CBR320kbps
*Size: 142MB

Tracklist:
1. Counter Strike 04:56
2. Prisoner of War 04:25
3. Eye of the Storm 05:01
4. From the Craddle to the Grave 04:02
5. Addicted to Chaos 05:09
6. Imprisoned in Time 04:09
7. Bitten by the Light 05:16
8. Hail to the King 04:37
9. Anthares - Legion of Mars 03:46
10. Eleven Shock 05:46
11. Anthares - Within Four Walls 04:23
12. Dead by Daylight 05:39
13. Anthares - Green River 04:40
******************************
Total playing time: 1:01:49




Extended info
Olivier Drums
Fanfan Guitars (1996-2001, 2013-present), Vocals (1996-2001)
See also: ex-Bloody Hopes
Julien Vocals (2013-present)
Dav Guitars (2016-present)
See also: Soul D. Mentia
Gwena Bass (2018-present)


Technical info
(IMG:https://metalarea.org/images/spectrogram/2019_Aug/fac7d0073974cbbb3c1896294f071390.png)
Input File: 03. Eye of the Storm.mp3
Channels : 2
Sample Rate : 44100
Precision : 16-bit
Duration : 00:05:01.11 = 13278819 samples = 22583 CDDA sectors
File Size : 12.1M
Bit Rate : 323k
Sample Encoding: MPEG audio (layer I, II or III)
Comments :
Title=Eye of the Storm
Artist=Anthares
Album=Addicted to Chaos
Tracknumber=3
Year=2019-19-20
Discnumber=1



Register


Go to the top of the page
  Insert nick Quick quote
+Quote Post
 
Start new topic
Replies (1 - 3)
post Aug 16 2019, 21:07:22
Post #2

Три Литра
***
Group: Завсегдатай
Posts: 265
Releases: 0
From: Kyiv
On Forums: 7 years 4 months
Thanks: 99 time(s)
Ukraine


Облога (IMG:style_emoticons/default/15.gif) )))))))
Go to the top of the page
  Insert nick Quick quote
+Quote Post
post Aug 17 2019, 16:51:21
Post #3

Правь статус, ####!111
**************
Group: Металариец
Posts: 2,558
Releases: 7
From: Dnipro
On Forums: 11 years 1 month
Thanks: 750 time(s)
Ukraine


ЦИТАТА(kessler @ Aug 16 2019, 23:07:22) *
Облога (IMG:style_emoticons/default/15.gif) )))))))

Это их брат
https://c2.mggcdn.net/27/153435381/26.jpg
Go to the top of the page
  Insert nick Quick quote
+Quote Post
post Aug 21 2019, 10:19:58
Post #4

Литр
*
Group: Подсевший
Posts: 79
Releases: 5
On Forums: 11 years 5 months
Thanks: 124 time(s)
Russian Federation


ЦИТАТА(kessler @ Aug 16 2019, 23:07:22) *
Облога (IMG:style_emoticons/default/15.gif) )))))))

Как будто у первого альбома много лучше была)
Go to the top of the page
  Insert nick Quick quote
+Quote Post

Reply to this topicStart new topic
1 User(s) are reading this topic (1 Guests and 0 Anonymous Users)
0 Members:

 



- Lo-Fi Version Support form
Copyrights and abuse reports form
Time is now: 24th August 2019 - 03:36:06