Welcome Guest ( Log In | Register )

> Bound In Fear - The Hand Of Violence (2019), Deathcore/Death Metal/Hardcore
post Aug 15 2019, 20:30:35
Post #1

MDM-Thrash Metal
**************
Group: Металариец
Posts: 9,117
Releases: 752
From: Одесса
On Forums: 12 years 3 months
Thanks: 20054 time(s)
Ukraine


(IMG:http://metalarea.org/images/audiocovers/2019_Aug/acov_tid325746_thumb.jpg)

*Artist: Bound In Fear
*Album: The Hand Of Violence
*Year: 2019
*Genre: Deathcore/Death Metal/Hardcore
*Country: United Kingdom (IMG:http://metalarea.org/forum/style_images/flags/United%20Kingdom.png)
*Format: mp3@CBR320kbps
*Size: 102MB

Tracklist:
01. Saint of Sorrow 03:23
02. The Rot Within (feat. Alex Teyen) 05:08
03. Condemned (feat. Adam Merce) 04:11
04. Stigmata 03:59
05. Void of Life (feat. Tyler Shel) 04:40
06. Parallels 03:00
07. Hate Circuit 04:55
08. The Hand of Violence 04:31
09. So Long, So Cold (feat. Kyle Medin) 04:32
10. Absolution 05:19
******************************
Total playing time: 43:38

(IMG:http://metalarea.org/images/youtube.png)
(IMG:http://metalarea.org/images/youtube.png)




Technical info
(IMG:http://metalarea.org/images/spectrogram/2019_Aug/348a4c18f5df73c037b1b214cc29f9ad.png)
Input File: 02-bound_in_fear_feat_alex_teyen-the_rot_within-c8414120.mp3
Channels : 2
Sample Rate : 44100
Precision : 16-bit
Duration : 00:05:08.76 = 13616360 samples = 23157.1 CDDA sectors
File Size : 12.6M
Bit Rate : 327k
Sample Encoding: MPEG audio (layer I, II or III)
Comments :
Title=The Rot Within
Artist=Bound in Fear feat. Alex Teyen
Album=The Hand of Violence
Tracknumber=2/10
Year=2019
Genre=Death Metal



Register


Go to the top of the page
  Insert nick Quick quote
+Quote Post
 
Start new topic
Replies (1 - 1)
post Aug 18 2019, 10:39:29
Post #2

Экскадрилия Утуггофф. УУУ...ЖЖЖ...
**********
Group: Металариец
Posts: 1,373
Releases: 0
From: н.п. Большие Утюги
On Forums: 6 years 8 months
Thanks: 451 time(s)
Russian Federation


Старый добрый и недобрый индастриал. Пожалуй возьму.

(IMG:style_emoticons/default/true_black.gif)

... и баллада тоже -

(IMG:style_emoticons/default/t2017.gif) - я б её последней поставил. (IMG:style_emoticons/default/dooo.gif)

Go to the top of the page
  Insert nick Quick quote
+Quote Post

Reply to this topicStart new topic
1 User(s) are reading this topic (1 Guests and 0 Anonymous Users)
0 Members:

 



- Lo-Fi Version Support form
Copyrights and abuse reports form
Time is now: 8th December 2019 - 17:01:04