Welcome Guest ( Log In | Register )

> Releases Upload / Добавление релизов

Добавить релиз тут / Click here to add release
Рекомендованные обменники / Recommended file shares

> Wraith - Absolute Power (2019), Blackened Speed Metal/Punk
post Aug 15 2019, 20:34:09
Post #1

Правь статус, ####!111
**************
Group: Металариец
Posts: 18,200
Releases: 12307
From: Г.Харьков
On Forums: 7 years 3 months
Thanks: 207436 time(s)
Unknown


(IMG:https://metalarea.org/images/audiocovers/2019_Aug/acov_tid325747_thumb.jpg)

*Artist: Wraith
*Album: Absolute Power
*Year: 2019
*Genre: Blackened Speed Metal/Punk
*Country: United States (IMG:https://metalarea.org/forum/style_images/flags/United%20States.png)
*Format: mp3@CBR320kbps
*Size: 61MB

Tracklist:
1. Devil's Hour 02:58
2. Acid Mass 02:34
3. Meaningless Planet 02:56
4. The Curse 02:57
5. War of Aggression 03:22
6. At the Stake 02:40
7. The Hunt 02:43
8. Eyes of the Sacred Ram 03:17
9. Absolute Power 02:35
10. Death Comes Ripping (The Misfits cover) 01:50
******************************
Total playing time: 27:52




Extended info
Matt Sokol Guitars, Vocals
Chris Petkus Bass
Mike Szymendera Drums


Technical info
(IMG:https://metalarea.org/images/spectrogram/2019_Aug/74262ec31d1ee724b246a74d5cfef73a.png)
Input File: 05 - War of Aggression.mp3
Channels : 2
Sample Rate : 44100
Precision : 16-bit
Duration : 00:03:21.91 = 8904407 samples = 15143.5 CDDA sectors
File Size : 8.31M
Bit Rate : 329k
Sample Encoding: MPEG audio (layer I, II or III)
Comments :
Title=War of Aggression
Artist=Wraith
Album=Absolute Power
Tracknumber=5/10
Year=2019
Genre=Metal



Register


Go to the top of the page
  Insert nick Quick quote
+Quote Post
 
Start new topic
Replies (1 - 3)
post Aug 17 2019, 16:58:27
Post #2

Правь статус, ####!111
**************
Group: Металариец
Posts: 2,558
Releases: 7
From: Dnipro
On Forums: 11 years 1 month
Thanks: 750 time(s)
Ukraine


Отличная вещь и ноль комментов, странно (IMG:style_emoticons/default/13.gif)


Thanks:
Go to the top of the page
  Insert nick Quick quote
+Quote Post
post Aug 17 2019, 17:09:57
Post #3

Четыре Литра
****
Group: Металариец
Posts: 378
Releases: 0
From: германия
On Forums: 10 years 8 months
Thanks: 130 time(s)
Russian Federation


Веселуха епаттьььь !! Toxik Holocaust похоже ! Супер (IMG:style_emoticons/default/metaler.gif)


Thanks:
Go to the top of the page
  Insert nick Quick quote
+Quote Post
post Aug 18 2019, 13:31:10
Post #4

Четыре Литра
****
Group: Металариец
Posts: 378
Releases: 0
From: германия
On Forums: 10 years 8 months
Thanks: 130 time(s)
Russian Federation


второй день с плеера не выключаю, просто ОГОНЬ !


Thanks:
Go to the top of the page
  Insert nick Quick quote
+Quote Post

Reply to this topicStart new topic
1 User(s) are reading this topic (1 Guests and 0 Anonymous Users)
0 Members:

 



- Lo-Fi Version Support form
Copyrights and abuse reports form
Time is now: 24th August 2019 - 03:58:10