Welcome Guest ( Log In | Register )

> Releases Upload / Добавление релизов

Добавить релиз тут / Click here to add release
Рекомендованные обменники / Recommended file shares

> Deadspace - The Grand Disillusionment (2019), Depressive Black Metal
post Aug 15 2019, 21:27:43
Post #1

Правь статус, ####!111
**************
Group: Металариец
Posts: 18,200
Releases: 12307
From: Г.Харьков
On Forums: 7 years 3 months
Thanks: 207436 time(s)
Unknown


(IMG:https://metalarea.org/images/audiocovers/2019_Aug/acov_tid325751_thumb.jpg)

*Artist: Deadspace
*Album: The Grand Disillusionment
*Year: 2019
*Genre: Depressive Black Metal
*Country: Australia (IMG:https://metalarea.org/forum/style_images/flags/Australia.png)
*Format: mp3@CBR320kbps
*Size: 107MB

Tracklist:
1. Inhale the Slime 06:40
2. As Time Moves Backwards 04:57
3. The Funeral March 05:43
4. Horrors to Endure 03:31
5. Infliction 04:31
6. The Seventh Death of a Fascist Sun 03:35
7. The Ashes of the World 05:22
8. Masturbation Ritual 05:20
9. Lungs 03:23
10. The Bones Beneath My Feet 04:47
******************************
Total playing time: 47:49




Extended info
Chris Gebauer Vocals
Herb Bennetts Drums
Thomas Major Guitars
Dan Jackson Bass
John Pescod Keyboards


Technical info
(IMG:https://metalarea.org/images/spectrogram/2019_Aug/0dee5872e8cf989da2ac0ad22c833123.png)
Input File: 03 - The Funeral March.mp3
Channels : 2
Sample Rate : 48000
Precision : 16-bit
Duration : 00:05:44.12 = 16517952 samples ~ 25809.3 CDDA sectors
File Size : 13.8M
Bit Rate : 320k
Sample Encoding: MPEG audio (layer I, II or III)
Comments :
Title=The Funeral March
Artist=Deadspace
Album=The Grand Disillusionment
Tracknumber=3
Year=2019
Genre=Black Metal



Register


Go to the top of the page
  Insert nick Quick quote
+Quote Post
 
Start new topic
Replies (1 - 3)
post Aug 15 2019, 21:59:08
Post #2

Три Литра
***
Group: Завсегдатай
Posts: 241
Releases: 127
On Forums: 6 years 11 months
Thanks: 2811 time(s)
Unknown


Продолжение Dirge. То есть вроде и норм, а на деле отвратительно, если любить ранние релизы. Да тот же миник Libido Dominandi за этот год круче данного полноформата


Thanks:
(1) sok,
Go to the top of the page
  Insert nick Quick quote
+Quote Post
post Aug 17 2019, 17:15:12
Post #3

Правь статус, ####!111
**************
Group: Металариец
Posts: 2,558
Releases: 7
From: Dnipro
On Forums: 11 years 1 month
Thanks: 750 time(s)
Ukraine


Очень не плохо (IMG:style_emoticons/default/dooo.gif)
Go to the top of the page
  Insert nick Quick quote
+Quote Post
post Aug 17 2019, 17:18:49
Post #4

poison creosote
******
Group: Металариец
Posts: 695
Releases: 1
On Forums: 2 years 2 months
Thanks: 355 time(s)
Iceland


чот никогда эта группа не вкатывала
Go to the top of the page
  Insert nick Quick quote
+Quote Post

Reply to this topicStart new topic
1 User(s) are reading this topic (1 Guests and 0 Anonymous Users)
0 Members:

 



- Lo-Fi Version Support form
Copyrights and abuse reports form
Time is now: 24th August 2019 - 03:51:37