Welcome Guest ( Log In | Register )

> Releases Upload / Добавление релизов

Добавить релиз тут / Click here to add release
Рекомендованные обменники / Recommended file shares

 
Reply to this topicStart new topic
> Darkened - Into Blackness [ep] (2019), Old School Death Metal
post Aug 15 2019, 21:57:10
Post #1

Правь статус, ####!111
**************
Group: Металариец
Posts: 18,201
Releases: 12307
From: Г.Харьков
On Forums: 7 years 3 months
Thanks: 207438 time(s)
Unknown


(IMG:https://metalarea.org/images/audiocovers/2019_Aug/acov_tid325754_thumb.jpg)

*Artist: Darkened
*Album: Into Blackness [ep]
*Year: 2019
*Genre: Old School Death Metal
*Country: Sweden (IMG:https://metalarea.org/forum/style_images/flags/Sweden.png)
*Format: mp3@CBR320kbps
*Size: 39MB

Tracklist:
1. Into the Blackness 01:06
2. The Offering 04:03
3. Darkening of My Soul 04:39
4. Unredeemed 05:29
******************************
Total playing time: 15:17



Extended info
Although a brand-new entity, DARKENED host a wealth of experience in the death metal underground, comprising drummer Andy Whale (ex-Bolt Thrower / Memoriam), bassist Daryl Kahan (Funebrarum), vocalist Gord Olson (Ye Goat-Herd Gods / Demisery), and guitarists Linus Nirbrant (A Canorous Quintet / This Ending) and Hempa Brynolfsson (Excruciate / Ordo Inferus).


Technical info
(IMG:https://metalarea.org/images/spectrogram/2019_Aug/5855c4f2baa75adaa5892f17445efcf6.png)
Input File: 02. The Offering.mp3
Channels : 2
Sample Rate : 44100
Precision : 16-bit
Duration : 00:04:03.61 = 10743113 samples = 18270.6 CDDA sectors
File Size : 10.3M
Bit Rate : 339k
Sample Encoding: MPEG audio (layer I, II or III)
Comments :
Title=The Offering
Artist=Darkened
Album=Into Blackness
Tracknumber=2
Year=2019
Genre=OSDM



Register


Go to the top of the page
  Insert nick Quick quote
+Quote Post

Reply to this topicStart new topic
1 User(s) are reading this topic (1 Guests and 0 Anonymous Users)
0 Members:

 



- Lo-Fi Version Support form
Copyrights and abuse reports form
Time is now: 24th August 2019 - 04:24:14