Welcome Guest ( Log In | Register )

> The Cleaner & Mr. Filth's Van Murders - Born To Slaughter (A Bloodsoaked Prequel) (2019), Old School Death Metal
post Aug 16 2019, 00:31:14
Post #1

Правь статус, ####!111
**************
Group: Металариец
Posts: 19,792
Releases: 13423
From: Г.Харьков
On Forums: 7 years 6 months
Thanks: 232241 time(s)
Unknown


(IMG:https://metalarea.org/images/audiocovers/2019_Aug/acov_tid325757_thumb.jpg)

*Artist: The Cleaner & Mr. Filth's Van Murders
*Album: Born To Slaughter (A Bloodsoaked Prequel)
*Year: 2019
*Genre: Old School Death Metal
*Country: Sweden (IMG:https://metalarea.org/forum/style_images/flags/Sweden.png)
*Format: mp3@CBR320kbps
*Size: 63MB

Tracklist:
01. A Bloodsoaked Theme
02. Burning Rubber, Burning Flesh
03. Ripe Meat Cresendo
04. Bloodied Dirt Afterbirth
05. Pimping the Ride (With Hooks for the Hide)
06. A Chilling Tale of Human Chili
07. Ready to Rot
08. A World of Flesh Awaits
******************************
Total playing time: 26:14



Extended info
Rogga Johansson with his Ribspreader creations Mr. Filth and the Cleaner.


Technical info
(IMG:https://metalarea.org/images/spectrogram/2019_Aug/5db2336038b0170d5a9973255240287b.png)
Input File: 05. Pimping the Ride (With Hooks for the Hide).mp3
Channels : 2
Sample Rate : 48000
Precision : 16-bit
Duration : 00:03:43.56 = 10731024 samples ~ 16767.2 CDDA sectors
File Size : 9.33M
Bit Rate : 334k
Sample Encoding: MPEG audio (layer I, II or III)
Comments :
Title=Pimping the Ride (With Hooks for the Hide)
Artist=The Cleaner & Mr. Filth's Van Murders
Album=Born to Slaughter (A Bloodsoaked Prequel)
Tracknumber=5
Year=2019
Genre=Death



Register


Go to the top of the page
  Insert nick Quick quote
+Quote Post
 
Start new topic
Replies (1 - 6)
post Aug 16 2019, 09:00:03
Post #2

Маньяк
**********
Group: Металариец
Posts: 1,122
Releases: 4
From: екатеринбург
On Forums: 10 years 8 months
Thanks: 73 time(s)
Russian Federation


охренеть,опять Рогга!как из рога изобилия сыпятся релизы!
Go to the top of the page
  Insert nick Quick quote
+Quote Post
post Aug 16 2019, 11:50:41
Post #3

De Mysteriis Dom Sathanas
**************
Group: Металариец
Posts: 3,752
Releases: 63
From: Doom
On Forums: 11 years 4 months
Thanks: 3165 time(s)
Russian Federation


Послушаю конечно, но по-моему Рогга исписался уже


Thanks:
Go to the top of the page
  Insert nick Quick quote
+Quote Post
post Aug 16 2019, 11:53:40
Post #4

Правь статус, ####!111
**************
Group: Металариец
Posts: 44,478
Releases: 687
On Forums: 10 years 6 months
Thanks: 35814 time(s)
Russian Federation


Опять Роггатый пупс веселится (IMG:style_emoticons/default/25.gif)

Название конечно, всполохнуло воспоминания о альбомчике его с таким названием, но спасибо за уточнение (IMG:style_emoticons/default/smile3.gif)
Go to the top of the page
  Insert nick Quick quote
+Quote Post
post Aug 16 2019, 16:55:24
Post #5

MDM-Thrash Metal
**************
Group: Металариец
Posts: 9,117
Releases: 752
From: Одесса
On Forums: 12 years 3 months
Thanks: 20051 time(s)
Ukraine


Что-то стахановец не так плодотворен. Помниться в прошлом году к этому времени альбомов было побольше... Да и, честно говоря, работы гараздо содержательными и интересными были.
Go to the top of the page
  Insert nick Quick quote
+Quote Post
post Aug 16 2019, 17:12:49
Post #6

Правь статус, ####!111
**************
Group: Металариец
Posts: 44,478
Releases: 687
On Forums: 10 years 6 months
Thanks: 35814 time(s)
Russian Federation


ЦИТАТА(Andrew @ Aug 16 2019, 19:55:24) *
Что-то стахановец не так плодотворен.


Ну ему и с жинкой и детьми побыть надо , не все ж пахать (IMG:style_emoticons/default/25.gif)
Go to the top of the page
  Insert nick Quick quote
+Quote Post
post Sep 4 2019, 06:35:50
Post #7

Мегаманьяк
***********
Group: Металариец
Posts: 1,578
Releases: 0
From: Санкт-Петербург
On Forums: 10 years 3 months
Thanks: 651 time(s)
Russian Federation


ИМХО: Так себе альбомчик получился...
Сам материал достаточно типичный для Рогги, но звук всё портит...
Go to the top of the page
  Insert nick Quick quote
+Quote Post

Reply to this topicStart new topic
1 User(s) are reading this topic (1 Guests and 0 Anonymous Users)
0 Members:

 



- Lo-Fi Version Support form
Copyrights and abuse reports form
Time is now: 8th December 2019 - 16:36:07