Welcome Guest ( Log In | Register )

> Releases Upload / Добавление релизов

Добавить релиз тут / Click here to add release
Рекомендованные обменники / Recommended file shares

> Concrete Winds - Primitive Force (2019), Death Metal
post Aug 16 2019, 02:19:30
Post #1

Правь статус, ####!111
**************
Group: Металариец
Posts: 18,200
Releases: 12307
From: Г.Харьков
On Forums: 7 years 3 months
Thanks: 207430 time(s)
Unknown


(IMG:https://metalarea.org/images/audiocovers/2019_Aug/acov_tid325758_thumb.jpg)

*Artist: Concrete Winds
*Album: Primitive Force
*Year: 2019
*Genre: Death Metal
*Country: Finland (IMG:https://metalarea.org/forum/style_images/flags/Finland.png)
*Format: mp3@CBR320kbps
*Size: 61MB

Tracklist:
1. Infant Gallow 02:30
2. Sulphuric Upheaval 02:17
3. White Cut Manifest 02:43
4. Primitive Force 02:32
5. Tyrant Pulse 03:30
6. Dissident Mutilator 02:18
7. Volcanic Turmoil 03:05
8. Angelic Laceration 02:18
9. Death Transmission 04:03
******************************
Total playing time: 25:16




Extended info
VORUM is dead! CONCRETE WINDS is deadly!
After the outstanding Minialbum ‚Current Mouth‘, finnish VORUM ceased to exist. But the dead can not die for they are still hungry.
Up from the ashes a new phoenix rose: CONCRETE WINDS is about to release one of the most bestial recordings ever erupting from the far north by the name ‚Primitive Force‘.
25 minutes of pure blasphemy, sadism & dystopia.
In spite of the utmost shredding, thundering and screaming, this album still has musical ambitions. Where ‚Current Mouth‘ ended, ‚Primitive Force‘ starts and drives every audial aspect to the maximum. On the other hand this release keeps every layout aspect to a minimum.
CONCRETE WINDS reduce everything to a lo fi, cut & paste undergroundish presentation.
They set a statement and raise the middlefinger to a distraction shot from what is relevant.
The pure magick of a Death Metal sound and gospel.


Technical info
(IMG:https://metalarea.org/images/spectrogram/2019_Aug/d53bd1406311ec585a93b250a6e60c78.png)
Input File: 05 Tyrant Pulse.mp3
Channels : 2
Sample Rate : 44100
Precision : 16-bit
Duration : 00:03:30.98 = 9304174 samples = 15823.4 CDDA sectors
File Size : 8.80M
Bit Rate : 334k
Sample Encoding: MPEG audio (layer I, II or III)
Comments :
Title=Tyrant Pulse
Artist=Concrete Winds
Album=Primitive Force
Tracknumber=5
Year=2019
Genre=Death Metal



Register


Go to the top of the page
  Insert nick Quick quote
+Quote Post
 
Start new topic
Replies (1 - 8)
post Aug 16 2019, 05:19:21
Post #2

Crush! Kill! Destroy!
**************
Group: Металариец
Posts: 4,999
Releases: 15
From: Kaliningrad
On Forums: 11 years 9 months
Thanks: 4576 time(s)
Russian Federation


Ждали-ждали (IMG:style_emoticons/default/9.gif)
Go to the top of the page
  Insert nick Quick quote
+Quote Post
post Aug 16 2019, 05:58:38
Post #3
BAN
Banned till
Aug 30 2019, 19:40:36



Скоростная притрэшованная тарахтелка. Лучше ранний Haiduk послушать.
Go to the top of the page
  Insert nick Quick quote
+Quote Post
post Aug 22 2019, 10:47:34
Post #4

Правь статус, ####!111
**************
Group: Металариец
Posts: 3,976
Releases: 0
From: Одесса
On Forums: 11 years 5 months
Thanks: 2085 time(s)
Unknown


This sounds quite good and interesting. Crushing and ravaging as not many bands are able to do.


Thanks:
Go to the top of the page
  Insert nick Quick quote
+Quote Post
post Aug 22 2019, 12:16:53
Post #5

Правь статус, ####!111
**************
Group: Металариец
Posts: 18,200
Releases: 12307
From: Г.Харьков
On Forums: 7 years 3 months
Thanks: 207430 time(s)
Unknown


FLAC (Tracks) 173mb
Register


Thanks:
(1) fffrost,
Go to the top of the page
  Insert nick Quick quote
+Quote Post
post Aug 22 2019, 12:53:14
Post #6

Crush! Kill! Destroy!
**************
Group: Металариец
Posts: 4,999
Releases: 15
From: Kaliningrad
On Forums: 11 years 9 months
Thanks: 4576 time(s)
Russian Federation


Отличное пырево. Вот куда надо было двигаться Диоклетиану, а не капусту сорта "revenge" выращивать.
Go to the top of the page
  Insert nick Quick quote
+Quote Post
post Aug 22 2019, 13:07:51
Post #7

Правь статус, ####!111
**************
Group: Металариец
Posts: 3,976
Releases: 0
From: Одесса
On Forums: 11 years 5 months
Thanks: 2085 time(s)
Unknown


QUOTE(Dmitry1977 @ Aug 22 2019, 13:53:14) *
Отличное пырево. Вот куда надо было двигаться Диоклетиану, а не капусту сорта "revenge" выращивать.

Nothing in common.


Thanks:
Go to the top of the page
  Insert nick Quick quote
+Quote Post
post Aug 22 2019, 17:03:08
Post #8

Пять Литров
*****
Group: Металариец
Posts: 487
Releases: 0
On Forums: 6 years 3 weeks
Thanks: 293 time(s)
Australia


QUOTE(judaz @ Aug 16 2019, 06:58:38) *
Скоростная притрэшованная тарахтелка. Лучше ранний Haiduk послушать.

(IMG:style_emoticons/default/hmm.gif)
Go to the top of the page
  Insert nick Quick quote
+Quote Post
post Aug 22 2019, 21:25:14
Post #9

Only Death is Real
******
Group: Металариец
Posts: 527
Releases: 0
From: Poland
On Forums: 2 years 8 months
Thanks: 284 time(s)
Poland


Very devastating album!


Thanks:
Go to the top of the page
  Insert nick Quick quote
+Quote Post

Reply to this topicStart new topic
1 User(s) are reading this topic (1 Guests and 0 Anonymous Users)
0 Members:

 



- Lo-Fi Version Support form
Copyrights and abuse reports form
Time is now: 24th August 2019 - 03:21:31