Welcome Guest ( Log In | Register )

> Deathrical - Dark Saturnal (2010), Gothic Metal
post Aug 16 2019, 11:01:27
Post #1

Cultist
**************
Group: Металариец
Posts: 4,611
Releases: 1336
From: Koenigsberg
On Forums: 15 years 4 months
Thanks: 9353 time(s)
Russian Federation


(IMG:http://metalarea.org/images/audiocovers/2019_Aug/acov_tid325767_thumb.jpg)

*Artist: Deathrical
*Album: Dark Saturnal
*Year: 2010
*Genre: Gothic Metal
*Country: Finland (IMG:http://metalarea.org/forum/style_images/flags/Finland.png)
*Format: mp3@CBR320kbps
*Size: 73MB

Tracklist:
1. Dark Saturnal 05:10
2. At the World's End 05:22
3. Prelude: Grace of Dawn 01:57
4. Oceandawn 04:08
5. Gabriel's Care 04:20
6. Dead of Night 06:25
******************************
Total playing time: 27:22

Technical info
(IMG:http://metalarea.org/images/spectrogram/2019_Aug/69a0c41f413032be6e0fe4f15be87be6.png)
Input File: 04 - Oceandawn.mp3
Channels : 2
Sample Rate : 44100
Precision : 16-bit
Duration : 00:04:08.34 = 10951618 samples = 18625.2 CDDA sectors
File Size : 11.8M
Bit Rate : 379k
Sample Encoding: MPEG audio (layer I, II or III)
Comments :
Title=Oceandawn
Artist=Deathrical
Album=Dark Saturnal
Tracknumber=4
Year=2010
Genre=Gothic Metal



Register


Go to the top of the page
  Insert nick Quick quote
+Quote Post
 
Start new topic
Replies (1 - 1)
post Aug 16 2019, 17:46:51
Post #2

hearer & reader
**************
Group: Металариец
Posts: 10,281
Releases: 211
From: Moscow
On Forums: 14 years 8 months
Thanks: 12389 time(s)
Russian Federation




Thanks:
(1) dagger666,
Go to the top of the page
  Insert nick Quick quote
+Quote Post

Reply to this topicStart new topic
1 User(s) are reading this topic (1 Guests and 0 Anonymous Users)
0 Members:

 



- Lo-Fi Version Support form
Copyrights and abuse reports form
Time is now: 25th May 2022 - 03:58:05