Welcome Guest ( Log In | Register )

> Ugly God Bastards - Ugly Fairy Tales (2019), Heavy/Thrash Metal
post Aug 16 2019, 14:15:45
Post #1

Правь статус, ####!111
**************
Group: Металариец
Posts: 28,186
Releases: 20579
From: Г.Харьков
On Forums: 9 years 6 months
Thanks: 419190 time(s)
Unknown


(IMG:https://metalarea.org/images/audiocovers/2019_Aug/acov_tid325774_thumb.jpg)

*Artist: Ugly God Bastards
*Album: Ugly Fairy Tales
*Year: 2019
*Genre: Heavy/Thrash Metal
*Country: Italy (IMG:https://metalarea.org/forum/style_images/flags/Italy.png)
*Format: mp3@CBR320kbps
*Size: 63MB

Tracklist:
1. The Little Nerdmaid
2. Snow Wine
3. Cinderhella
4. Handshell & Grindtool
5. Little Red Riding Flood
6. Little Thumb
******************************
Total playing time: 27:32



Extended info
Stefano Lonati
Stefano Lo Bianco
Marco Del Grande
Enrico Spera


Technical info
(IMG:https://metalarea.org/images/spectrogram/2019_Aug/fb9080f170aa517e27669805f8b82d36.png)
Input File: 04 - Handshell & Grindtool.mp3
Channels : 2
Sample Rate : 44100
Precision : 16-bit
Duration : 00:04:05.09 = 10808645 samples = 18382 CDDA sectors
File Size : 9.91M
Bit Rate : 323k
Sample Encoding: MPEG audio (layer I, II or III)
Comments :
Title=Handshell & Grindtool
Artist=Ugly God Bastards
Album=Ugly Fairy Tales
Tracknumber=4
Year=2019



Register


Go to the top of the page
  Insert nick Quick quote
+Quote Post
 
Start new topic
Replies (1 - 2)
post Aug 16 2019, 14:25:54
Post #2

Правь статус, ####!111
**************
Group: Металариец
Posts: 28,186
Releases: 20579
From: Г.Харьков
On Forums: 9 years 6 months
Thanks: 419190 time(s)
Unknown


Cloud Mail 320
Register


Thanks:
Go to the top of the page
  Insert nick Quick quote
+Quote Post
post Aug 16 2019, 17:13:49
Post #3

Пять Литров
*****
Group: Металариец
Posts: 422
Releases: 0
On Forums: 12 years 6 months
Thanks: 117 time(s)
Russian Federation


по превью - подача вокала и музла, как будь-то Мегадет играет. хоть и вокал другой, хриплый. В первой половине трэка. Что по альбому не знаю.


Thanks:
(1) postal67,
Go to the top of the page
  Insert nick Quick quote
+Quote Post

Reply to this topicStart new topic
2 User(s) are reading this topic (2 Guests and 0 Anonymous Users)
0 Members:

 



- Lo-Fi Version Support form
Copyrights and abuse reports form
Time is now: 6th December 2021 - 01:19:52