Welcome Guest ( Log In | Register )

> И неформату есть предел.

Рэп/хип-хоп/шансон/поп удаляются. Для них есть свои порталы.

> Ash Ra Tempel - Ash Ra Tempel (1971), Kraut Rock
post Aug 19 2019, 17:12:33
Post #1

Враг Газпрома
**************
Group: Металариец
Posts: 6,134
Releases: 0
On Forums: 10 years 8 months
Thanks: 2321 time(s)
Russian Federation


(IMG:https://metalarea.org/images/audiocovers/2019_Aug/acov_tid325891_thumb.jpg)

*Artist: Ash Ra Tempel
*Album: Ash Ra Tempel
*Year: 1971
*Genre: Kraut Rock
*Country: Germany (IMG:https://metalarea.org/forum/style_images/flags/Germany.png)
*Format: mp3@CBR320kbps
*Size: 106MB

Tracklist:
01. Amboss
02. Traummaschine
******************************
Total playing time: 45:26

Technical info
(IMG:https://metalarea.org/images/spectrogram/2019_Aug/5fd598d1d10e725e3340a4650c4d439a.png)
Input File: 01. Amboss.mp3
Channels : 2
Sample Rate : 44100
Precision : 16-bit
Duration : 00:19:54.42 = 52673790 samples = 89581.3 CDDA sectors
File Size : 47.8M
Bit Rate : 320k
Sample Encoding: MPEG audio (layer I, II or III)
Comments :
Title=Amboss
Artist=Ash Ra Tempel
Album=Ash Ra Tempel
Tracknumber=01



Register


Go to the top of the page
  Insert nick Quick quote
+Quote Post
 
Start new topic
Replies (1 - 1)
post Aug 21 2019, 06:38:44
Post #2

Враг Газпрома
**************
Group: Металариец
Posts: 6,134
Releases: 0
On Forums: 10 years 8 months
Thanks: 2321 time(s)
Russian Federation


Register


Thanks:
(3) ahp, Brann, marilin,
Go to the top of the page
  Insert nick Quick quote
+Quote Post

Reply to this topicStart new topic
1 User(s) are reading this topic (1 Guests and 0 Anonymous Users)
0 Members:

 



- Lo-Fi Version Support form
Copyrights and abuse reports form
Time is now: 21st February 2020 - 23:13:37