Welcome Guest ( Log In | Register )

> Destaize - Le Décadent (2019), Progressive Metal
post Aug 20 2019, 13:10:26
Post #1

Serial Uploader
Group Icon
Group: V.I.P
Posts: 37,112
Releases: 35296
From: Lithuania
On Forums: 11 years 10 months
Thanks: 418255 time(s)
Lithuania


(IMG:https://metalarea.org/images/audiocovers/2019_Aug/acov_tid325923_thumb.jpg)

*Artist: Destaize
*Album: Le Décadent
*Year: 2019
*Genre: Progressive Metal
*Country: Ukraine (IMG:https://metalarea.org/forum/style_images/flags/Ukraine.png)
*Format: mp3@CBR320kbps
*Size: 155MB

Tracklist:
01. Anima 01:10
02. Пыль (Са) 04:49
03. Девиант 04:27
04. Сатириазис 05:47
05. Дориан 05:07
06. Моя Аменция 06:40
07. Неприкаянный 04:54
08. Exsistentia 05:28
09. Пресный 04:18
10. Аромат 06:05
11. Симметрия 05:43
12. Энзим 04:52
13. Нигде 06:11
14. Animus 01:42
******************************
Total playing time: 1:07:13



(IMG:https://metalarea.org/images/youtube.png)

Technical info
(IMG:https://metalarea.org/images/spectrogram/2019_Aug/b5c1c00e80ee58985163cc5ad293286a.png)
Input File: 08. Exsistentia.mp3
Channels : 2
Sample Rate : 44100
Precision : 16-bit
Duration : 00:05:28.82 = 14501138 samples = 24661.8 CDDA sectors
File Size : 13.3M
Bit Rate : 323k
Sample Encoding: MPEG audio (layer I, II or III)
Comments :
Title=Exsistentia
Artist=Destaize
Album=Le décadent
Tracknumber=8/14
Year=2019
Genre=Alternative/Indie
Discnumber=1/1



Register


Go to the top of the page
  Insert nick Quick quote
+Quote Post
 
Start new topic
Replies (1 - 2)
post Aug 20 2019, 18:45:48
Post #2

hearer & reader
**************
Group: Металариец
Posts: 8,518
Releases: 131
From: Moscow
On Forums: 12 years 7 months
Thanks: 8380 time(s)
Russian Federation


Металкор.


Thanks:
Go to the top of the page
  Insert nick Quick quote
+Quote Post
post Aug 21 2019, 15:27:44
Post #3

Пять Литров
*****
Group: Металариец
Posts: 455
Releases: 0
On Forums: 13 years 3 months
Thanks: 58 time(s)
Russian Federation


Ага, кор. А ля Аматори и Слот.
Go to the top of the page
  Insert nick Quick quote
+Quote Post

Reply to this topicStart new topic
1 User(s) are reading this topic (1 Guests and 0 Anonymous Users)
0 Members:

 



- Lo-Fi Version Support form
Copyrights and abuse reports form
Time is now: 7th April 2020 - 20:39:38