Welcome Guest ( Log In | Register )

> И неформату есть предел.

Рэп/хип-хоп/шансон/поп удаляются. Для них есть свои порталы.

> Godzilla - On The Dead Roads (2019), Stoner Rock (D6)
post Aug 20 2019, 15:00:41
Post #1
BAN
Banned till
Oct 7 2019, 23:44:15



(IMG:http://metalarea.org/images/audiocovers/2019_Aug/acov_tid325932_thumb.jpg)

*Artist: Godzilla
*Album: On The Dead Roads
*Year: 2019
*Genre: Stoner Rock
*Country: Russian Federation (IMG:http://metalarea.org/forum/style_images/flags/Russian%20Federation.png)
*Format: mp3@CBR320kbps
*Size: 60MB

Tracklist:
1. Texas 02:49
2. Oh Man! 03:08
3. Help Me 04:48
4. When They Appear 02:56
5. What It's All About 04:48
6. I Wanna Fly With You 03:07
7. The Last Breath 03:30
******************************
Total playing time: 25:06



Technical info
(IMG:http://metalarea.org/images/spectrogram/2019_Aug/9c38cc2440696b4b75bb9da01a598da6.png)
Input File: Godzilla - On The Dead Roads - 01 Texas.mp3
Channels : 2
Sample Rate : 44100
Precision : 16-bit
Duration : 00:02:49.34 = 7467674 samples = 12700.1 CDDA sectors
File Size : 7.04M
Bit Rate : 333k
Sample Encoding: MPEG audio (layer I, II or III)
Comments :
Title=Texas
Artist=Godzilla
Album=On The Dead Roads
Tracknumber=1
Year=2019



Register


Go to the top of the page
  Insert nick Quick quote
+Quote Post
 
Start new topic
Replies (1 - 2)
post Aug 20 2019, 17:52:19
Post #2
BAN
RO till
Sep 29 2019, 00:15:53



They love grunge
Go to the top of the page
  Insert nick Quick quote
+Quote Post
post Aug 20 2019, 17:53:14
Post #3
BAN
Banned till
Oct 7 2019, 23:44:15



ЦИТАТА(babanguida @ Aug 20 2019, 20:52:19) *
They love grunge


Dats good (IMG:style_emoticons/default/25.gif)
Go to the top of the page
  Insert nick Quick quote
+Quote Post

Reply to this topicStart new topic
1 User(s) are reading this topic (1 Guests and 0 Anonymous Users)
0 Members:

 



- Lo-Fi Version Support form
Copyrights and abuse reports form
Time is now: 15th September 2019 - 19:56:24