Welcome Guest ( Log In | Register )

> Mayhemic - Mortuary Feast Of Skeletons [ep] (2019), Blackened Thrash Metal
post Aug 21 2019, 01:47:34
Post #1

Правь статус, ####!111
**************
Group: Металариец
Posts: 25,994
Releases: 18653
From: Г.Харьков
On Forums: 8 years 11 months
Thanks: 369490 time(s)
Unknown


(IMG:https://metalarea.org/images/audiocovers/2019_Aug/acov_tid325955_thumb.jpg)

*Artist: Mayhemic
*Album: Mortuary Feast Of Skeletons [ep]
*Year: 2019
*Genre: Blackened Thrash Metal
*Country: Chile (IMG:https://metalarea.org/forum/style_images/flags/Chile.png)
*Format: mp3@CBR320kbps
*Size: 40MB

Tracklist:
1. Shaking Ground 03:29
2. Mortuary Feast of Skeletons 02:21
3. Death Spawm 03:23
4. Mayhemic 03:16
******************************
Total playing time: 12:29




Extended info
CD-Rip+Scans
Parabellum Bass
Noctumbra Drums
Doom Guitars
Demian Vocals, Guitars


Technical info
(IMG:https://metalarea.org/images/spectrogram/2019_Aug/d44d6687a601ac0a7488ce54dc0485b3.png)
Input File: 03 - Death Spawm.mp3
Channels : 2
Sample Rate : 44100
Precision : 16-bit
Duration : 00:03:23.27 = 8964339 samples = 15245.5 CDDA sectors
File Size : 8.13M
Bit Rate : 320k
Sample Encoding: MPEG audio (layer I, II or III)
Comments :
Title= Death Spawm
Artist=Mayhemic
Album=Mortuary Feast of Skeletons
Tracknumber=3
Year=2019
Genre=Blackened Thrash Metal



Register


Go to the top of the page
  Insert nick Quick quote
+Quote Post
 
Start new topic
Replies (1 - 1)
post Dec 16 2020, 17:19:12
Post #2

Туфлєблек то є файно
**************
Group: Металариец
Posts: 2,368
Releases: 0
From: Україна
On Forums: 12 years 4 months
Thanks: 1849 time(s)
Ukraine


Чилинос Шизофренус Ассамблерос (IMG:style_emoticons/default/pray.gif) (IMG:style_emoticons/default/pray.gif) (IMG:style_emoticons/default/pray.gif)
Угар, жарят по красоте, как мы любим.
Жаль маловато.
Не пропускайте эту ипишку, улётные демоны.
Go to the top of the page
  Insert nick Quick quote
+Quote Post

Reply to this topicStart new topic
1 User(s) are reading this topic (1 Guests and 0 Anonymous Users)
0 Members:

 



- Lo-Fi Version Support form
Copyrights and abuse reports form
Time is now: 9th May 2021 - 06:09:28