Welcome Guest ( Log In | Register )

> 

Здесь релизы с живыми прямыми ссылками на lossless

> Ildjarn - Ildjarn 93 [demo] (2005), Raw Black Metal (D)
post Aug 22 2019, 15:32:56
Post #1

Четыре Литра
****
Group: Металариец
Posts: 305
Releases: 52
On Forums: 5 years 10 months
Thanks: 979 time(s)
Serbia


(IMG:http://metalarea.org/images/audiocovers/2019_Aug/acov_tid326136_thumb.jpg)

*Artist: Ildjarn
*Album: Ildjarn 93 [demo]
*Year: 2005
*Genre: Raw Black Metal
*Country: Norway (IMG:http://metalarea.org/forum/style_images/flags/Norway.png)
*Format: mp3@CBR320kbps
*Size: 61MB

Tracklist:
A1 Intro: Innferd
A2 Kronet
A3 Sola Skjultes
A4 Ild
B1 Fjerde Dag
B2 Et Glimt
B3 Støv Og Aske
B4 Ode
******************************
Total playing time: 28:10

Extended info
Credits
Artwork – NOB Art
Composed By, Performer [Performed By] – Ildjarn
Recorded By, Mixed By – Ildjarn
Vocals [Additional Session Vocals] – Ihsahn

Notes
Recorded and mixed in January 1993.

Reissue of the Ildjarn 1993 demo cassette.


Technical info
(IMG:http://metalarea.org/images/spectrogram/2019_Aug/6c211349c99912cd173f9cfefe1e7ccf.png)
Input File: 08. Ode.mp3
Channels : 2
Sample Rate : 44100
Precision : 16-bit
Duration : 00:04:12.78 = 11147466 samples = 18958.3 CDDA sectors
File Size : 10.1M
Bit Rate : 320k
Sample Encoding: MPEG audio (layer I, II or III)
Comments :
Title=Ode
Artist=Ildjarn
Album=Ildjarn 93
Tracknumber=08
Year=2005
Genre=Black Metal



Register


Go to the top of the page
  Insert nick Quick quote
+Quote Post
 
Start new topic
Replies (1 - 1)
post Aug 23 2019, 19:37:40
Post #2

Четыре Литра
****
Group: Металариец
Posts: 305
Releases: 52
On Forums: 5 years 10 months
Thanks: 979 time(s)
Serbia


Register


Go to the top of the page
  Insert nick Quick quote
+Quote Post

Reply to this topicStart new topic
1 User(s) are reading this topic (1 Guests and 0 Anonymous Users)
0 Members:

 



- Lo-Fi Version Support form
Copyrights and abuse reports form
Time is now: 21st September 2019 - 05:36:11