Welcome Guest ( Log In | Register )

> Cemetery Gates - Through The Shadows Of Fear (2019), Progressive/Gothic/Doom Metal
post Aug 27 2019, 13:09:11
Post #1

Serial Uploader
Group Icon
Group: V.I.P
Posts: 39,577
Releases: 37699
From: Lithuania
On Forums: 14 years 8 months
Thanks: 474363 time(s)
Lithuania


(IMG:https://metalarea.org/images/audiocovers/2019_Aug/acov_tid326568_thumb.jpg)

*Artist: Cemetery Gates
*Album: Through The Shadows Of Fear
*Year: 2019
*Genre: Progressive/Gothic/Doom Metal
*Country: United States (IMG:https://metalarea.org/forum/style_images/flags/United%20States.png)
*Format: mp3@CBR320kbps
*Size: 126MB

Tracklist:
01. Awake 06:02
02. Old Misfortune Blues 05:22
03. Hotel Albatross 05:05
04. Unforgiven Corruption 06:25
05. Extinction 05:23
06. The Purge 06:17
07. And What Should Not Be 05:31
08. Till the End 05:17
09. Sleep (The Final) 09:32
******************************
Total playing time: 54:54



Technical info
(IMG:https://metalarea.org/images/spectrogram/2019_Aug/c604ba396005773fc94fc92fc1b2ead3.png)
Input File: 2 - Old Misfortune Blues.mp3
Channels : 2
Sample Rate : 44100
Precision : 16-bit
Duration : 00:05:21.64 = 14184192 samples = 24122.8 CDDA sectors
File Size : 12.9M
Bit Rate : 321k
Sample Encoding: MPEG audio (layer I, II or III)
Comments :
Title=Old Misfortune Blues
Artist=Cemetery Gates
Album=Through the Shadows of Fear
Tracknumber=2
Year=2019
Genre=Metal
Discnumber=1



Register


Go to the top of the page
  Insert nick Quick quote
+Quote Post
 
Start new topic
Replies (1 - 5)
post Sep 1 2019, 14:08:52
Post #2

Ёлд ХеллоВяйне
Group Icon
Group: V.I.P
Posts: 34,048
Releases: 144
From: Питер
On Forums: 16 years 3 months
Thanks: 21377 time(s)
Russian Federation


Go to the top of the page
  Insert nick Quick quote
+Quote Post
post Oct 13 2019, 22:43:27
Post #3

Шесть Литров
******
Group: Металариец
Posts: 575
Releases: 2
From: Санкт-Петербург
On Forums: 15 years 3 months
Thanks: 181 time(s)
Russian Federation


Группа из Швеции, какие нах штаты?


Thanks:
Go to the top of the page
  Insert nick Quick quote
+Quote Post
post Jul 16 2022, 21:08:09
Post #4

threat
**********
Group: Металариец
Posts: 1,160
Releases: 0
On Forums: 16 years 6 months
Thanks: 502 time(s)
Turkey


320

Register
Go to the top of the page
  Insert nick Quick quote
+Quote Post
post Jul 21 2022, 00:34:36
Post #5

Мегаманьяк
***********
Group: Металариец
Posts: 1,627
Releases: 0
On Forums: 13 years 11 months
Thanks: 688 time(s)
South Korea


Thank you, quarantine!

Also, for FLAC (as well as 320 kbps and other types), the release (as well as the singles and EP's included in this release, but not those after this one) is currently downloadable free on the band's BandCamp page:

Go to the top of the page
  Insert nick Quick quote
+Quote Post
post Sep 8 2022, 12:03:28
Post #6

Семь Литров
*******
Group: Металариец
Posts: 773
Releases: 0
On Forums: 16 years 1 month
Thanks: 106 time(s)
Russian Federation


Как то не очень профессионально они звучат.
Go to the top of the page
  Insert nick Quick quote
+Quote Post

Reply to this topicStart new topic
2 User(s) are reading this topic (2 Guests and 0 Anonymous Users)
0 Members:

 



- Lo-Fi Version Support form
Copyrights and abuse reports form
Time is now: 9th February 2023 - 13:36:36