Welcome Guest ( Log In | Register )

> Mahara - The Gathering (2019), Stoner/Doom Metal
post Aug 28 2019, 14:05:09
Post #1

Serial Uploader
Group Icon
Group: V.I.P
Posts: 39,288
Releases: 37423
From: Lithuania
On Forums: 14 years 5 months
Thanks: 469128 time(s)
Lithuania


(IMG:https://metalarea.org/images/audiocovers/2019_Aug/acov_tid326596_thumb.jpg)

*Artist: Mahara
*Album: The Gathering
*Year: 2019
*Genre: Stoner/Doom Metal
*Country: Spain (IMG:https://metalarea.org/forum/style_images/flags/Spain.png)
*Format: mp3@CBR320kbps
*Size: 101MB

Tracklist:
01. Deathstalker 12:09
02. God's Requiem 06:39
03. Widzard's Tower 07:59
04. Merga 04:49
05. The Gathering 12:28
******************************
Total playing time: 44:04


(IMG:https://metalarea.org/images/youtube.png)

Technical info
(IMG:https://metalarea.org/images/spectrogram/2019_Aug/c278c608e831c3e5e2a714956256c6a5.png)
Input File: 02 God\'s Requiem.mp3
Channels : 2
Sample Rate : 44100
Precision : 16-bit
Duration : 00:06:39.88 = 17634752 samples = 29991.1 CDDA sectors
File Size : 16.3M
Bit Rate : 326k
Sample Encoding: MPEG audio (layer I, II or III)
Comments :
Title=God's Requiem
Artist=Mahara
Album=The Gathering
Tracknumber=2
Year=2019
Genre=Metal



Register


Go to the top of the page
  Insert nick Quick quote
+Quote Post
 
Start new topic
Replies (1 - 2)
post Sep 20 2022, 08:43:08
Post #2

Group: Подсевший
Posts: 37
Releases: 0
On Forums: 7 months 3 days
Thanks: 1 time(s)
Unknown


Please, reupload. (IMG:style_emoticons/default/pray.gif)
Go to the top of the page
  Insert nick Quick quote
+Quote Post
post Sep 20 2022, 11:52:06
Post #3

Добрый
**************
Group: Металариец
Posts: 5,618
Releases: 0
On Forums: 4 years 4 months
Thanks: 16710 time(s)
Russian Federation


104 mb/320 kbps
Register


Thanks:
(1) Ignativs,
Go to the top of the page
  Insert nick Quick quote
+Quote Post

Reply to this topicStart new topic
2 User(s) are reading this topic (2 Guests and 0 Anonymous Users)
0 Members:

 



- Lo-Fi Version Support form
Copyrights and abuse reports form
Time is now: 27th November 2022 - 02:25:33