Welcome Guest ( Log In | Register )

> Releases Upload / Добавление релизов

Добавить релиз тут / Click here to add release
Рекомендованные обменники / Recommended file shares

> Atlantean Kodex - The Course Of Empire (2019), Epic Heavy/Doom Metal
post Sep 5 2019, 10:22:55
Post #1

Serial Uploader
Group Icon
Group: V.I.P
Posts: 36,300
Releases: 34494
From: Lithuania
On Forums: 11 years 4 months
Thanks: 401161 time(s)
Lithuania


(IMG:https://metalarea.org/images/audiocovers/2019_Sep/acov_tid326933_thumb.jpg)

*Artist: Atlantean Kodex
*Album: The Course Of Empire
*Year: 2019
*Genre: Epic Heavy/Doom Metal
*Country: Germany (IMG:https://metalarea.org/forum/style_images/flags/Germany.png)
*Format: mp3@CBR320kbps
*Size: 142MB

Tracklist:
01. The Alpha and the Occident (Rising from Atlantean Tombs) 02:01
02. People of the Moon (Dawn of Creation) 09:01
03. Lion of Chaldea (The Heroes' Journey) 06:45
04. Chariots (Descending from Zagros) 08:29
05. The Innermost Light (Sensus Fidei) 03:34
06. A Secret Byzantium (Numbered as Sand and the Stars) 08:55
07. He Who Walks Behind the Years (Place of Sounding Drums) 08:53
08. Spell of the Western Sea (Among Wolves and Thieves) 01:27
09. The Course of Empire (All Thrones in Earth and Heaven) 10:46
10. Die Welt von Gestern (Abendland) 02:43
******************************
Total playing time: 1:02:34




(IMG:https://metalarea.org/images/youtube.png)

Technical info
(IMG:https://metalarea.org/images/spectrogram/2019_Sep/5d97b2f5164deffa4e14c9fe0026364e.png)
Input File: 02 People Of The Moon (Dawn Of Creation).mp3
Channels : 2
Sample Rate : 44100
Precision : 16-bit
Duration : 00:09:00.82 = 23849986 samples = 40561.2 CDDA sectors
File Size : 21.6M
Bit Rate : 320k
Sample Encoding: MPEG audio (layer I, II or III)
Comments :
Title=People Of The Moon (Dawn Of Creation)
Artist=Atlantean Kodex
Album=The Course Of Empire
Tracknumber=02/10
Year=2019
Genre=Heavy Metal
Discnumber=1/1



Register


Go to the top of the page
  Insert nick Quick quote
+Quote Post
 
Start new topic
Replies (1 - 1)
post Sep 5 2019, 20:50:43
Post #2

MDM-Thrash Metal
**************
Group: Металариец
Posts: 8,871
Releases: 676
From: Одесса
On Forums: 12 years 2 months
Thanks: 18707 time(s)
Ukraine


Cloud Mail 320:
Register


Go to the top of the page
  Insert nick Quick quote
+Quote Post

Reply to this topicStart new topic
2 User(s) are reading this topic (2 Guests and 0 Anonymous Users)
0 Members:

 



- Lo-Fi Version Support form
Copyrights and abuse reports form
Time is now: 18th October 2019 - 09:24:26