Welcome Guest ( Log In | Register )

> Releases Upload / Добавление релизов

Добавить релиз тут / Click here to add release
Рекомендованные обменники / Recommended file shares

> Decayed - The Oath Of Heathen Blood (2019), Black Metal
post Sep 5 2019, 13:58:07
Post #1

Serial Uploader
Group Icon
Group: V.I.P
Posts: 36,306
Releases: 34500
From: Lithuania
On Forums: 11 years 4 months
Thanks: 401565 time(s)
Lithuania


(IMG:https://metalarea.org/images/audiocovers/2019_Sep/acov_tid326953_thumb.jpg)

*Artist: Decayed
*Album: The Oath Of Heathen Blood
*Year: 2019
*Genre: Black Metal
*Country: Portugal (IMG:https://metalarea.org/forum/style_images/flags/Portugal.png)
*Format: mp3@CBR320kbps
*Size: 97MB

Tracklist:
01. Rites to Antheia (Intro)
02. Oath of the Heathen Blood
03. The Breader Chronicles
04. Torn by Lions
05. Unleash Apophis XIII
06. Grave Desecrators
07. Masque of Red Death
08. Her Dark Eyes / Eternal
09. The Cronos Device
10. Terminal Dirge
******************************
Total playing time: 42:11

(IMG:https://metalarea.org/images/myspace.png)

(IMG:https://metalarea.org/images/youtube.png)

Technical info
(IMG:https://metalarea.org/images/spectrogram/2019_Sep/ca38c03d9cddc459f5b437911aa17f12.png)
Input File: 2 Oath of Heathen Blood.mp3
Channels : 2
Sample Rate : 44100
Precision : 16-bit
Duration : 00:08:18.50 = 21983674 samples = 37387.2 CDDA sectors
File Size : 20.5M
Bit Rate : 329k
Sample Encoding: MPEG audio (layer I, II or III)
Comments :
Title=Oath of Heathen Blood
Artist=Decayed
Album=The Oath of Heathen Blood
Tracknumber=2/10
Year=2019
Discnumber=1/1



Register


Go to the top of the page
  Insert nick Quick quote
+Quote Post
 
Start new topic
Replies (1 - 8)
post Sep 5 2019, 19:57:23
Post #2

MDM-Thrash Metal
**************
Group: Металариец
Posts: 8,889
Releases: 681
From: Одесса
On Forums: 12 years 2 months
Thanks: 18852 time(s)
Ukraine




Go to the top of the page
  Insert nick Quick quote
+Quote Post
post Sep 5 2019, 23:05:01
Post #3

Литр
*
Group: Подсевший
Posts: 90
Releases: 0
On Forums: 3 years 2 months
Thanks: 7 time(s)
Unknown


Flac?
Go to the top of the page
  Insert nick Quick quote
+Quote Post
post Sep 6 2019, 08:17:31
Post #4

Правь статус, ####!111
**************
Group: Металариец
Posts: 2,681
Releases: 8
From: Dnipro
On Forums: 11 years 3 months
Thanks: 834 time(s)
Ukraine


Португальские культовики (IMG:style_emoticons/default/25.gif)


Thanks:
Go to the top of the page
  Insert nick Quick quote
+Quote Post
post Sep 6 2019, 09:44:49
Post #5

Маньяк
**********
Group: Металариец
Posts: 1,455
Releases: 0
On Forums: 11 years 8 months
Thanks: 621 time(s)
Russian Federation


Эти хорошо лабают, что и подтверждает сие творение, да и производительность у них хорошая.
Go to the top of the page
  Insert nick Quick quote
+Quote Post
post Sep 6 2019, 09:52:01
Post #6
BAN
Banned till
Dec 7 2037, 23:47:14



Ууухх..
ЦИТАТА
(IMG:style_emoticons/default/true_black.gif)
Go to the top of the page
  Insert nick Quick quote
+Quote Post
post Sep 6 2019, 10:23:54
Post #7

Сектант технодро4чер
**************
Group: Металариец
Posts: 5,490
Releases: 143
From: Тимчасово окупована територія
On Forums: 11 years 1 month
Thanks: 5712 time(s)
Ukraine


(IMG:style_emoticons/default/true_black.gif)
Go to the top of the page
  Insert nick Quick quote
+Quote Post
post Sep 6 2019, 10:52:35
Post #8

Prisoner Of Our Time
**************
Group: Металариец
Posts: 4,906
Releases: 46
From: Луганск, 13 регион, экс-"404"
On Forums: 13 years 11 months
Thanks: 1489 time(s)
Papua New Guinea


necroscum, (IMG:style_emoticons/default/9.gif)


Thanks:
Go to the top of the page
  Insert nick Quick quote
+Quote Post
post Sep 11 2019, 11:45:05
Post #9

Два Литра
**
Group: Завсегдатай
Posts: 186
Releases: 0
On Forums: 4 months 2 weeks
Thanks: 83 time(s)
Unknown


Старая гвардия! От альбома к альбому следуют своим выверенным путем, за это почет им и уважение. Знатные чернушники (IMG:style_emoticons/default/true_black.gif)


Go to the top of the page
  Insert nick Quick quote
+Quote Post

Reply to this topicStart new topic
2 User(s) are reading this topic (2 Guests and 0 Anonymous Users)
0 Members:

 



- Lo-Fi Version Support form
Copyrights and abuse reports form
Time is now: 20th October 2019 - 22:10:58