Welcome Guest ( Log In | Register )

> Releases Upload / Добавление релизов

Добавить релиз тут / Click here to add release
Рекомендованные обменники / Recommended file shares

> Rival - Rival (2019), Heavy/Power Metal
post Sep 5 2019, 14:29:25
Post #1

Serial Uploader
Group Icon
Group: V.I.P
Posts: 36,277
Releases: 34471
From: Lithuania
On Forums: 11 years 4 months
Thanks: 400871 time(s)
Lithuania


(IMG:https://metalarea.org/images/audiocovers/2019_Sep/acov_tid326957_thumb.jpg)

*Artist: Rival
*Album: Rival
*Year: 2019
*Genre: Heavy/Power Metal
*Country: Chile (IMG:https://metalarea.org/forum/style_images/flags/Chile.png)
*Format: mp3@CBR320kbps
*Size: 106MB

Tracklist:
01. Aemulus (Intro)
02. Reacción y Control
03. Fascinación
04. En Cadenas
05. Hijas de Abril (Acústico) [Instrumental)
06. Hell Guitar (Instrumental)
07. Nunca Encontrarás
08. No Más
09. The Dirty, the Bad & the Real Groove (Instrumental)
10. Secreto Mortal
11. Sumergido
******************************
Total playing time: 46:09



Technical info
(IMG:https://metalarea.org/images/spectrogram/2019_Sep/766a90668eec47191b0da1c8a047e3cd.png)
Input File: 02 Reacción y Control.mp3
Channels : 2
Sample Rate : 44100
Precision : 16-bit
Duration : 00:00:00.20 = 8864 samples = 15.0748 CDDA sectors
File Size : 8.76M
Bit Rate : 349M
Sample Encoding: MPEG audio (layer I, II or III)
Comments :
Title=Reacción y Control
Artist=Rival
Album=Rival
Tracknumber=2/11
Year=2019
Genre=Alternative
Discnumber=1/1



Register


Go to the top of the page
  Insert nick Quick quote
+Quote Post
 
Start new topic
Replies (1 - 2)
post Sep 5 2019, 19:43:38
Post #2

MDM-Thrash Metal
**************
Group: Металариец
Posts: 8,859
Releases: 667
From: Одесса
On Forums: 12 years 2 months
Thanks: 18591 time(s)
Ukraine


Cloud 320:
Register


Thanks:
(1) Olethros,
Go to the top of the page
  Insert nick Quick quote
+Quote Post
post Sep 6 2019, 12:31:54
Post #3

hearer & reader
**************
Group: Металариец
Posts: 8,101
Releases: 105
From: Moscow
On Forums: 12 years 1 month
Thanks: 7589 time(s)
Russian Federation


Go to the top of the page
  Insert nick Quick quote
+Quote Post

Reply to this topicStart new topic
2 User(s) are reading this topic (2 Guests and 0 Anonymous Users)
0 Members:

 



- Lo-Fi Version Support form
Copyrights and abuse reports form
Time is now: 15th October 2019 - 03:17:37