Welcome Guest ( Log In | Register )

> Morbid Stench - Doom & Putrefaction (2019), Doom/Death Metal
post Sep 9 2019, 23:46:09
Post #1

Правь статус, ####!111
**************
Group: Металариец
Posts: 30,923
Releases: 22794
From: Г.Харьков
On Forums: 10 years 6 months
Thanks: 477014 time(s)
Unknown


(IMG:http://metalarea.org/images/audiocovers/2019_Sep/acov_tid327164_thumb.Jpg)

*Artist: Morbid Stench
*Album: Doom & Putrefaction
*Year: 2019
*Genre: Doom/Death Metal
*Country: International (IMG:http://metalarea.org/forum/style_images/flags/International.png)
*Format: mp3@CBR320kbps
*Size: 89MB

Tracklist:
1. The Eucharist 07:19
2. Sempiternal Prophecies of Damnation 05:32
3. El Despojo de un Redentor 05:24
4. Disincarnated, Intoxicated & Mutilated 06:37
5. The Apocryphal 05:28
6. Morbid Stench 08:07
******************************
Total playing time: 38:27




Extended info
El Salvador / Costa Rica
V.K. Drums
See also: Disorder, Invocation of Death, Tabu, ex-Arcane, ex-Tyrant Lord, Spontaneous Human Combustion, ex-Conceived by Hate, ex-Soomdrag, ex-Selvtier (live), ex-Dismal Gale, ex-Akeldama, ex-Antares Death, ex-Kryptorium
M.Q. Guitars, Bass
See also: Conceived by Hate, Destroyer Attack, Disorder, Invocation of Death, Witchgöat, ex-Altar, ex-Scavenger
The Master Butcher Vocals
See also: Insepulto, Necrogod, ex-From Oblivion, ex-Gólgota, ex-Pseudostratiffied Epithelium, ex-Mummified



Technical info
(IMG:http://metalarea.org/images/spectrogram/2019_Sep/cd0f0e7dc88ec3116e78b31abd815725.png)
Input File: 02. Sempiternal Prophecies of Damnation.mp3
Channels : 2
Sample Rate : 44100
Precision : 16-bit
Duration : 00:05:32.30 = 14654386 samples = 24922.4 CDDA sectors
File Size : 13.5M
Bit Rate : 326k
Sample Encoding: MPEG audio (layer I, II or III)
Comments :
Title=Sempiternal Prophecies of Damnation
Artist=Morbid Stench
Album=Doom & Putrefaction
Tracknumber=02
Year=2019
Genre=Metal



Register


Go to the top of the page
  Insert nick Quick quote
+Quote Post
 
Start new topic
Replies (1 - 5)
post Sep 10 2019, 21:23:55
Post #2

Правь статус, ####!111
**************
Group: Металариец
Posts: 30,923
Releases: 22794
From: Г.Харьков
On Forums: 10 years 6 months
Thanks: 477014 time(s)
Unknown


FLAC (Tracks) 277 mb
Register


Go to the top of the page
  Insert nick Quick quote
+Quote Post
post Sep 11 2019, 16:29:57
Post #3

Девять Литров
*********
Group: Металариец
Posts: 906
Releases: 0
From: South Of Heaven
On Forums: 15 years 4 months
Thanks: 430 time(s)
Ukraine


Шикарный Death/Doom - в меру мелодичный, тягучий , (IMG:style_emoticons/default/metaler.gif) ..треки можно было и по-длинней сделать , особенно 5-й "The Apocryphal"
Релизёру (IMG:style_emoticons/default/9.gif) (IMG:style_emoticons/default/9.gif)


Thanks:
Go to the top of the page
  Insert nick Quick quote
+Quote Post
post Oct 25 2019, 15:57:06
Post #4

Crush! Kill! Destroy!
**************
Group: Металариец
Posts: 5,770
Releases: 15
From: Kaliningrad
On Forums: 15 years 2 weeks
Thanks: 5443 time(s)
Russian Federation


ЭТО
ПРОСТО
ОФИГЕННО
!!!


Go to the top of the page
  Insert nick Quick quote
+Quote Post
post Dec 8 2019, 14:45:29
Post #5

Full-of-Hate
**************
Group: Металариец
Posts: 5,125
Releases: 0
From: Moscow
On Forums: 13 years 5 months
Thanks: 5863 time(s)
Russian Federation


Весьма и весьма примечательный Doom/Death, такой, с пониманием дела.
Сырость, грубость, протяжная тоска - это все есть. Местами весьма понравилось, но лишь местами. Реально хороши куски с ведущей гитарой.
В остальном отдельным фрагментам на среднем и низком темпам не хватает давления и объема, даже случаются провисания. Самый удачный трек - это последний "Morbid Stench", просто разнос.
Go to the top of the page
  Insert nick Quick quote
+Quote Post
post Oct 11 2022, 20:46:42
Post #6

Два Литра
**
Group: Завсегдатай
Posts: 124
Releases: 0
On Forums: 7 months 3 weeks
Thanks: 13 time(s)
Germany


Reupload pls
Go to the top of the page
  Insert nick Quick quote
+Quote Post

Reply to this topicStart new topic
1 User(s) are reading this topic (1 Guests and 0 Anonymous Users)
0 Members:

 



- Lo-Fi Version Support form
Copyrights and abuse reports form
Time is now: 3rd December 2022 - 16:52:43