Welcome Guest ( Log In | Register )

> Releases Upload / Добавление релизов

Добавить релиз тут / Click here to add release
Рекомендованные обменники / Recommended file shares

> Mithridatic - Tetanos Mystique (2019), Death/Black Metal
post Sep 12 2019, 14:07:51
Post #1

Serial Uploader
Group Icon
Group: V.I.P
Posts: 36,308
Releases: 34502
From: Lithuania
On Forums: 11 years 4 months
Thanks: 401702 time(s)
Lithuania


(IMG:https://metalarea.org/images/audiocovers/2019_Sep/acov_tid327290_thumb.jpg)

*Artist: Mithridatic
*Album: Tetanos Mystique
*Year: 2019
*Genre: Death/Black Metal
*Country: France (IMG:https://metalarea.org/forum/style_images/flags/France.png)
*Format: mp3@CBR320kbps
*Size: 84MB

Tracklist:
01. God's Blindspot 05:29
02. The Dead Mountain of Life 05:20
03. Lotophagus (Lotus Eaters Dream) 04:02
04. Le sevrage 04:03
05. The Night Torn from Herself 03:31
06. Toothless Bite 04:42
07. Phosphenes Aura 04:20
08. Tetanos mystique 05:14
******************************
Total playing time: 36:41

(IMG:https://metalarea.org/images/myspace.png)



(IMG:https://metalarea.org/images/youtube.png)

Technical info
(IMG:https://metalarea.org/images/spectrogram/2019_Sep/0d618db61f4247f348010cde014dd2de.png)
Input File: 2 - The Dead Mountain of Life.mp3
Channels : 2
Sample Rate : 44100
Precision : 16-bit
Duration : 00:05:20.02 = 14112750 samples = 24001.3 CDDA sectors
File Size : 12.9M
Bit Rate : 322k
Sample Encoding: MPEG audio (layer I, II or III)
Comments :
Title=The Dead Mountain of Life
Artist=Mithridatic
Album=Tetanos Mystique
Tracknumber=2
Year=2019
Genre=Rock/Metal
Discnumber=1



Register


Go to the top of the page
  Insert nick Quick quote
+Quote Post
 
Start new topic
Replies (1 - 2)
post Sep 14 2019, 00:15:09
Post #2

Литр
*
Group: Подсевший
Posts: 93
Releases: 0
On Forums: 3 years 2 months
Thanks: 7 time(s)
Unknown


Flac?
Go to the top of the page
  Insert nick Quick quote
+Quote Post
post Sep 14 2019, 17:05:21
Post #3

Crush! Kill! Destroy!
**************
Group: Металариец
Posts: 5,090
Releases: 15
From: Kaliningrad
On Forums: 11 years 11 months
Thanks: 4682 time(s)
Russian Federation


Какой-то штопаный стыд. Первый ведь был отличным альбомом. Техничным даже весьма, что завсегда привествтуется! А здесь - тупая скучная долба. Пожалуй худший проект, в котором засветился весьма грамотный барабанер. Осечка вышла.
Go to the top of the page
  Insert nick Quick quote
+Quote Post

Reply to this topicStart new topic
1 User(s) are reading this topic (1 Guests and 0 Anonymous Users)
0 Members:

 



- Lo-Fi Version Support form
Copyrights and abuse reports form
Time is now: 23rd October 2019 - 01:59:53