Welcome Guest ( Log In | Register )

> Releases Upload / Добавление релизов

Добавить релиз тут / Click here to add release
Рекомендованные обменники / Recommended file shares

> Redsphere - Immortal Voids (2019), Thrash/Death Metal
post Sep 12 2019, 15:35:16
Post #1

Правь статус, ####!111
**************
Group: Металариец
Posts: 18,575
Releases: 12575
From: Г.Харьков
On Forums: 7 years 4 months
Thanks: 213041 time(s)
Unknown


(IMG:https://metalarea.org/images/audiocovers/2019_Sep/acov_tid327301_thumb.jpg)

*Artist: Redsphere
*Album: Immortal Voids
*Year: 2019
*Genre: Thrash/Death Metal
*Country: New Caledonia (IMG:https://metalarea.org/forum/style_images/flags/New%20Caledonia.png)
*Format: mp3@CBR320kbps
*Size: 76MB

Tracklist:
1. Descent
2. Maelstrom
3. Immortal Voids
4. Pyre
5. The Stranger
6. Eldritch
7. Eyes Behind The door
8. Morbid Nebula
9. Monolith
******************************
Total playing time: 33:01




Extended info
Bruno Fontebasso Bass
See also: Gautama
Mickael Robert Drums
Alexandre Verdier Guitars
See also: Gautama
Gaetan Sartre Guitars
Clément Bouchet Vocals


Technical info
(IMG:https://metalarea.org/images/spectrogram/2019_Sep/62b76a08d0f35d2110b9add5b780347e.png)
Input File: 5 - The Stranger.mp3
Channels : 2
Sample Rate : 44100
Precision : 16-bit
Duration : 00:03:40.49 = 9723389 samples = 16536.4 CDDA sectors
File Size : 8.88M
Bit Rate : 322k
Sample Encoding: MPEG audio (layer I, II or III)
Comments :
Title=The Stranger
Artist=Redsphere
Album=Immortal Voids
Tracknumber=5
Year=2019
Genre=Rock/Hard Rock/Metal
Discnumber=1



Register


Go to the top of the page
  Insert nick Quick quote
+Quote Post
 
Start new topic
Replies (1 - 1)
post Sep 13 2019, 21:29:35
Post #2

MDM-Thrash Metal
**************
Group: Металариец
Posts: 8,705
Releases: 606
From: Одесса
On Forums: 12 years 1 month
Thanks: 17450 time(s)
Ukraine


ЦИТАТА(Samaritianin @ Sep 12 2019, 17:35:16) *
*Country: New Caledonia

(IMG:style_emoticons/default/17.gif) В рот компот! Вот оттуда еще металюг не было!!!
Go to the top of the page
  Insert nick Quick quote
+Quote Post

Reply to this topicStart new topic
1 User(s) are reading this topic (1 Guests and 0 Anonymous Users)
0 Members:

 



- Lo-Fi Version Support form
Copyrights and abuse reports form
Time is now: 21st September 2019 - 06:01:12