Welcome Guest ( Log In | Register )

> Releases Upload / Добавление релизов

Добавить релиз тут / Click here to add release
Рекомендованные обменники / Recommended file shares

> Rayken - Eterna Tu Historia (2019), Heavy Metal
post Sep 12 2019, 15:45:46
Post #1

Serial Uploader
Group Icon
Group: V.I.P
Posts: 36,147
Releases: 34346
From: Lithuania
On Forums: 11 years 3 months
Thanks: 398362 time(s)
Lithuania


(IMG:https://metalarea.org/images/audiocovers/2019_Sep/acov_tid327302_thumb.jpg)

*Artist: Rayken
*Album: Eterna Tu Historia
*Year: 2019
*Genre: Heavy Metal
*Country: Colombia (IMG:https://metalarea.org/forum/style_images/flags/Colombia.png)
*Format: mp3@CBR320kbps
*Size: 161MB

Tracklist:
01. Señor del Trueno (Intro)
02. Los Más Temibles de la Noche
03. Sin Piedad
04. Ausencia
05. Ra, Como un Nuevo Sol
06. Luchando Hasta el Final
07. Fantasmas
08. A Toda Velocidad
09. Rayken Es el Poder
10. Heavy Metal
11. Furia de Amor
12. Guardianes de Mi Tierra
13. Los Más Temibles de la Noche (Sangre Heavy) (Bonus Track)
14. Ausencia (Acústico) (Bonus Track)
15. Furia de Amor (Acústico) (Bonus Track)
******************************
Total playing time: 1:09:57



Technical info
(IMG:https://metalarea.org/images/spectrogram/2019_Sep/51a751706d02993b9da3086c5f776c3b.png)
Input File: 02. Los Más Temibles de la Noche.mp3
Channels : 2
Sample Rate : 44100
Precision : 16-bit
Duration : 00:04:39.40 = 12321452 samples = 20954.9 CDDA sectors
File Size : 11.3M
Bit Rate : 322k
Sample Encoding: MPEG audio (layer I, II or III)
Comments :
Title=Los Más Temibles de la Noche
Artist=Rayken
Album=Eterna Tu Historia
Tracknumber=2/15
Year=2019
Genre=9
Discnumber=1/1



Register


Go to the top of the page
  Insert nick Quick quote
+Quote Post
 
Start new topic
Replies (1 - 1)
post Sep 13 2019, 21:27:23
Post #2

MDM-Thrash Metal
**************
Group: Металариец
Posts: 8,705
Releases: 606
From: Одесса
On Forums: 12 years 1 month
Thanks: 17451 time(s)
Ukraine


Go to the top of the page
  Insert nick Quick quote
+Quote Post

Reply to this topicStart new topic
1 User(s) are reading this topic (1 Guests and 0 Anonymous Users)
0 Members:

 



- Lo-Fi Version Support form
Copyrights and abuse reports form
Time is now: 21st September 2019 - 06:09:21