Welcome Guest ( Log In | Register )

> Releases Upload / Добавление релизов

Добавить релиз тут / Click here to add release
Рекомендованные обменники / Recommended file shares

 
Reply to this topicStart new topic
> Eagle Claw - Vallis (2019), Heavy Metal
post Sep 12 2019, 15:53:08
Post #1

Serial Uploader
Group Icon
Group: V.I.P
Posts: 36,147
Releases: 34346
From: Lithuania
On Forums: 11 years 3 months
Thanks: 398375 time(s)
Lithuania


(IMG:https://metalarea.org/images/audiocovers/2019_Sep/acov_tid327303_thumb.jpg)

*Artist: Eagle Claw
*Album: Vallis
*Year: 2019
*Genre: Heavy Metal
*Country: United States (IMG:https://metalarea.org/forum/style_images/flags/United%20States.png)
*Format: mp3@CBR320kbps
*Size: 88MB

Tracklist:
01. Redness
02. Arsia
03. Olympus
04. Phobos
05. Deimos
06. Her Desher
07. Aurora
******************************
Total playing time: 38:15

(IMG:https://metalarea.org/images/myspace.png)

(IMG:https://metalarea.org/images/youtube.png)

Technical info
(IMG:https://metalarea.org/images/spectrogram/2019_Sep/1b52fceff375c802130ffe83bac969d1.png)
Input File: 2 - Arsia.mp3
Channels : 2
Sample Rate : 44100
Precision : 16-bit
Duration : 00:04:21.00 = 11510232 samples = 19575.2 CDDA sectors
File Size : 10.5M
Bit Rate : 322k
Sample Encoding: MPEG audio (layer I, II or III)
Comments :
Title=Arsia
Artist=Eagle Claw
Album=Vallis
Tracknumber=2
Year=2019
Genre=Alternative/Indie Rock/Metal
Discnumber=1



Register


Go to the top of the page
  Insert nick Quick quote
+Quote Post

Reply to this topicStart new topic
1 User(s) are reading this topic (1 Guests and 0 Anonymous Users)
0 Members:

 



- Lo-Fi Version Support form
Copyrights and abuse reports form
Time is now: 21st September 2019 - 06:17:12