Welcome Guest ( Log In | Register )

> Releases Upload / Добавление релизов

Добавить релиз тут / Click here to add release
Рекомендованные обменники / Recommended file shares

 
Reply to this topicStart new topic
> Smash Potater - Suburban Legends (2019), Thrash Metal/Crossover (D)
post Sep 12 2019, 15:54:25
Post #1

Правь статус, ####!111
**************
Group: Металариец
Posts: 18,575
Releases: 12575
From: Г.Харьков
On Forums: 7 years 4 months
Thanks: 213057 time(s)
Unknown


(IMG:https://metalarea.org/images/audiocovers/2019_Sep/acov_tid327304_thumb.jpg)

*Artist: Smash Potater
*Album: Suburban Legends
*Year: 2019
*Genre: Thrash Metal/Crossover
*Country: United States (IMG:https://metalarea.org/forum/style_images/flags/United%20States.png)
*Format: mp3@CBR320kbps
*Size: 75MB

Tracklist:
1. Diners, Drive-Ins & Drive-Bys
2. Massive Chilling Capacity
3. The Scene Is Dead
4. Toxic Masculinity Holocaust (ft Azalee Panama Cano)
5. 2stepdad (ft Eddie Leeway Sutton)
6. Flat Earth Crisis
7. GMO
8. Inglés Sin Barreras (ft Ruben Garza)
9. Los Angeles Azules Del Infierno
10. Tragic School Bus
11. Nothing Else Splatters
12. Hook-up Culture Club
13. Too Old To Mosh, Too Young To Die (ft Professor Pizza)
14. Mom, I Swear It's Not A Phase
15. Confection Infection
16. Keeper Of The Seven Cheese: Chapter 1 - Pizza Eagle
(ft Brett Scott)
17. Your Last Fuckin' Chance (ft Chris Guajardo)
18. Gravii
******************************
Total playing time: 34:10





Extended info
Julian Walter Bass
See also: Rotted, ex-Nefarious, ex-Vesicant, ex-Attack Imminent
Pablo Fisher Guitars, Vocals
Atlantis "Metal-Lovers" Gonzalez Drums (2010-present)
See also: Clocktower
Edeez "Deep-Dish" Esquivel Guitars, Vocals (2010-present)
See also: Clocktower


Technical info
(IMG:https://metalarea.org/images/spectrogram/2019_Sep/30a81c5f783f1f69108e64ed1535f73e.png)
Input File: 07. Gmo.mp3
Channels : 2
Sample Rate : 44100
Precision : 16-bit
Duration : 00:03:01.07 = 7985055 samples = 13580 CDDA sectors
File Size : 7.38M
Bit Rate : 326k
Sample Encoding: MPEG audio (layer I, II or III)
Comments :
Title=Gmo
Artist=Smash Potater
Album=Suburban Legends
Tracknumber=7/18
Year=2019
Genre=9
Discnumber=1/1



Register


Go to the top of the page
  Insert nick Quick quote
+Quote Post

Reply to this topicStart new topic
1 User(s) are reading this topic (1 Guests and 0 Anonymous Users)
0 Members:

 



- Lo-Fi Version Support form
Copyrights and abuse reports form
Time is now: 21st September 2019 - 06:25:15