Welcome Guest ( Log In | Register )

> Releases Upload / Добавление релизов

Добавить релиз тут / Click here to add release
Рекомендованные обменники / Recommended file shares

 
Reply to this topicStart new topic
> A Constant Knowledge Of Death - Vol. III, C: Everything Was Possible And Nothing Was True (2019), Progressive/Post-Metal
post Sep 12 2019, 16:07:51
Post #1

Serial Uploader
Group Icon
Group: V.I.P
Posts: 36,147
Releases: 34346
From: Lithuania
On Forums: 11 years 3 months
Thanks: 398336 time(s)
Lithuania


(IMG:https://metalarea.org/images/audiocovers/2019_Sep/acov_tid327305_thumb.jpg)

*Artist: A Constant Knowledge Of Death
*Album: Vol. III, C: Everything Was Possible And Nothing Was True
*Year: 2019
*Genre: Progressive/Post-Metal
*Country: United States (IMG:https://metalarea.org/forum/style_images/flags/United%20States.png)
*Format: mp3@CBR320kbps
*Size: 71MB

Tracklist:
01. Ash Winter
02. Incineration
03. Despoina
04. Everything Was Possible and Nothing Was True
05. Drowning in a Burning Building
06. Untruths
07. Somewhat Disturbed With Anger in His Looks
******************************
Total playing time: 30:51




Technical info
(IMG:https://metalarea.org/images/spectrogram/2019_Sep/cc9b8601d520de0acdf36ebdc5f47c06.png)
Input File: 02. Incineration.mp3
Channels : 2
Sample Rate : 44100
Precision : 16-bit
Duration : 00:05:30.05 = 14555293 samples = 24753.9 CDDA sectors
File Size : 13.4M
Bit Rate : 324k
Sample Encoding: MPEG audio (layer I, II or III)
Comments :
Title=Incineration
Artist=A Constant Knowledge of Death
Album=Vol. III, C: Everything Was Possible and Nothing Was True
Tracknumber=2/7
Year=2019
Genre=9
Discnumber=1/1



Register


Go to the top of the page
  Insert nick Quick quote
+Quote Post

Reply to this topicStart new topic
1 User(s) are reading this topic (1 Guests and 0 Anonymous Users)
0 Members:

 



- Lo-Fi Version Support form
Copyrights and abuse reports form
Time is now: 21st September 2019 - 05:35:33