Welcome Guest ( Log In | Register )

> Releases Upload / Добавление релизов

Добавить релиз тут / Click here to add release
Рекомендованные обменники / Recommended file shares

 
Reply to this topicStart new topic
> One Hour Hell - Voidwalker (2019), Thrash/Death Metal
post Sep 12 2019, 16:14:20
Post #1

Правь статус, ####!111
**************
Group: Металариец
Posts: 18,575
Releases: 12575
From: Г.Харьков
On Forums: 7 years 4 months
Thanks: 213003 time(s)
Unknown


(IMG:https://metalarea.org/images/audiocovers/2019_Sep/acov_tid327307_thumb.jpg)

*Artist: One Hour Hell
*Album: Voidwalker
*Year: 2019
*Genre: Thrash/Death Metal
*Country: Sweden (IMG:https://metalarea.org/forum/style_images/flags/Sweden.png)
*Format: mp3@CBR320kbps
*Size: 112MB

Tracklist:
1. A Violent Cancer 03:37
2. Empty Eyes 05:02
3. Hall of a Thousand Minds 05:50
4. Within 06:23
5. Exit? 06:20
6. Purge 05:37
7. Ashes from a Last Breath 05:38
8. Re-Saw 05:47
9. Drivkraft 04:35
******************************
Total playing time: 48:49

Preview 1


Extended info
Krister "Spud" Andersen Guitars
Martin Ågren Drums
Joakim Mikiver Vocals
Ludvig Ågren Hertz Guitars
Teddy Möller Bass


Technical info
(IMG:https://metalarea.org/images/spectrogram/2019_Sep/bfe1f6ab157a6e874405c80a9f937150.png)
Input File: 3 - Hall of a Thousand Minds.mp3
Channels : 2
Sample Rate : 44100
Precision : 16-bit
Duration : 00:05:50.12 = 15440072 samples = 26258.6 CDDA sectors
File Size : 14.1M
Bit Rate : 322k
Sample Encoding: MPEG audio (layer I, II or III)
Comments :
Title=Hall of a Thousand Minds
Artist=One Hour Hell
Album=Voidwalker
Tracknumber=3
Year=2019
Genre=Thrash, Death Metal
Discnumber=1



Register


Go to the top of the page
  Insert nick Quick quote
+Quote Post

Reply to this topicStart new topic
1 User(s) are reading this topic (1 Guests and 0 Anonymous Users)
0 Members:

 



- Lo-Fi Version Support form
Copyrights and abuse reports form
Time is now: 21st September 2019 - 05:36:28