Welcome Guest ( Log In | Register )

> Releases Upload / Добавление релизов

Добавить релиз тут / Click here to add release
Рекомендованные обменники / Recommended file shares

> Workshed - Workshed (2019), Stoner/Doom Metal
post Sep 12 2019, 16:18:54
Post #1

Serial Uploader
Group Icon
Group: V.I.P
Posts: 36,154
Releases: 34353
From: Lithuania
On Forums: 11 years 3 months
Thanks: 398495 time(s)
Lithuania


(IMG:https://metalarea.org/images/audiocovers/2019_Sep/acov_tid327308_thumb.jpg)

*Artist: Workshed
*Album: Workshed
*Year: 2019
*Genre: Stoner/Doom Metal
*Country: United Kingdom (IMG:https://metalarea.org/forum/style_images/flags/United%20Kingdom.png)
*Format: mp3@CBR320kbps
*Size: 106MB

Tracklist:
01. The Windowpanes at the Lexington
02. If This is How It Is
03. Nowhere to Go
04. Anthropophobic
05. On Sticks of Wood
06. This City Has Fallen
07. A Spirit in Exile
08. Safety Behaviours
09. It Doesnt Have to Be That Way
******************************
Total playing time: 30:51



Technical info
(IMG:https://metalarea.org/images/spectrogram/2019_Sep/ac8a5cb7c1a15512cc1b348cc92aee50.png)
Input File: 02. If This is How It Is.mp3
Channels : 2
Sample Rate : 44100
Precision : 16-bit
Duration : 00:04:44.68 = 12554168 samples = 21350.6 CDDA sectors
File Size : 11.5M
Bit Rate : 324k
Sample Encoding: MPEG audio (layer I, II or III)
Comments :
Title=If This is How It Is
Artist=Workshed
Album=Workshed
Tracknumber=2/9
Year=2019
Genre=9
Discnumber=1/1



Register


Go to the top of the page
  Insert nick Quick quote
+Quote Post
 
Start new topic
Replies (1 - 2)
post Sep 13 2019, 09:31:46
Post #2

hearer & reader
**************
Group: Металариец
Posts: 8,045
Releases: 104
From: Moscow
On Forums: 12 years 2 weeks
Thanks: 7527 time(s)
Russian Federation


ЦИТАТА
Experimental Doom band featuring ex Cathedral musicians Mark Wharton and Adam Lehan.



(IMG:style_emoticons/default/27.gif)


Go to the top of the page
  Insert nick Quick quote
+Quote Post
post Sep 13 2019, 09:37:55
Post #3
BAN
Banned till
Oct 6 2019, 16:10:14



Мужики с Кафедраль? Забират. Спасибо.
Go to the top of the page
  Insert nick Quick quote
+Quote Post

Reply to this topicStart new topic
1 User(s) are reading this topic (1 Guests and 0 Anonymous Users)
0 Members:

 



- Lo-Fi Version Support form
Copyrights and abuse reports form
Time is now: 21st September 2019 - 22:22:49