Welcome Guest ( Log In | Register )

> Workshed - Workshed (2019), Stoner/Doom Metal
post Sep 12 2019, 16:18:54
Post #1

Serial Uploader
Group Icon
Group: V.I.P
Posts: 36,465
Releases: 34653
From: Lithuania
On Forums: 11 years 5 months
Thanks: 404860 time(s)
Lithuania


(IMG:https://metalarea.org/images/audiocovers/2019_Sep/acov_tid327308_thumb.jpg)

*Artist: Workshed
*Album: Workshed
*Year: 2019
*Genre: Stoner/Doom Metal
*Country: United Kingdom (IMG:https://metalarea.org/forum/style_images/flags/United%20Kingdom.png)
*Format: mp3@CBR320kbps
*Size: 106MB

Tracklist:
01. The Windowpanes at the Lexington
02. If This is How It Is
03. Nowhere to Go
04. Anthropophobic
05. On Sticks of Wood
06. This City Has Fallen
07. A Spirit in Exile
08. Safety Behaviours
09. It Doesnt Have to Be That Way
******************************
Total playing time: 30:51



Technical info
(IMG:https://metalarea.org/images/spectrogram/2019_Sep/ac8a5cb7c1a15512cc1b348cc92aee50.png)
Input File: 02. If This is How It Is.mp3
Channels : 2
Sample Rate : 44100
Precision : 16-bit
Duration : 00:04:44.68 = 12554168 samples = 21350.6 CDDA sectors
File Size : 11.5M
Bit Rate : 324k
Sample Encoding: MPEG audio (layer I, II or III)
Comments :
Title=If This is How It Is
Artist=Workshed
Album=Workshed
Tracknumber=2/9
Year=2019
Genre=9
Discnumber=1/1



Register


Go to the top of the page
  Insert nick Quick quote
+Quote Post
 
Start new topic
Replies (1 - 7)
post Sep 13 2019, 09:31:46
Post #2

hearer & reader
**************
Group: Металариец
Posts: 8,199
Releases: 110
From: Moscow
On Forums: 12 years 2 months
Thanks: 7717 time(s)
Russian Federation


ЦИТАТА
Experimental Doom band featuring ex Cathedral musicians Mark Wharton and Adam Lehan.



(IMG:style_emoticons/default/27.gif)


Thanks:
Go to the top of the page
  Insert nick Quick quote
+Quote Post
post Oct 6 2019, 22:22:20
Post #3

Group: Дух
Posts: 2
Releases: 0
On Forums: 11 years 7 months
Thanks: 0 time(s)
Micronesia


dead link. possible to post it again ?
Go to the top of the page
  Insert nick Quick quote
+Quote Post
post Oct 6 2019, 22:29:16
Post #4

Маньяк
**********
Group: Металариец
Posts: 1,227
Releases: 1
On Forums: 5 years 3 weeks
Thanks: 429 time(s)
Tajikistan


недурно
Go to the top of the page
  Insert nick Quick quote
+Quote Post
post Oct 6 2019, 22:35:05
Post #5

Правь статус, ####!111
**************
Group: Металариец
Posts: 44,131
Releases: 678
On Forums: 10 years 5 months
Thanks: 35406 time(s)
Russian Federation


Слишком быстро, панк какой то местами.

Ну и вокал не оч
Go to the top of the page
  Insert nick Quick quote
+Quote Post
post Oct 6 2019, 22:39:26
Post #6

Правь статус, ####!111
**************
Group: Металариец
Posts: 44,131
Releases: 678
On Forums: 10 years 5 months
Thanks: 35406 time(s)
Russian Federation


Конан никогда не нравились.

А че за проект дориана with the dead чтоли?
Go to the top of the page
  Insert nick Quick quote
+Quote Post
post Oct 8 2019, 15:40:10
Post #7

Шесть Литров
******
Group: Металариец
Posts: 672
Releases: 10
On Forums: 10 years 10 months
Thanks: 162 time(s)
Germany


please, re-upload.
Go to the top of the page
  Insert nick Quick quote
+Quote Post
post Oct 8 2019, 16:01:34
Post #8


Group Icon
Group: S-moderation team
Posts: 12,625
Releases: 1439
From: Zagreb
On Forums: 8 years 8 months
Thanks: 54762 time(s)
Croatia


Register


Thanks:
Go to the top of the page
  Insert nick Quick quote
+Quote Post

Reply to this topicStart new topic
1 User(s) are reading this topic (1 Guests and 0 Anonymous Users)
0 Members:

 



- Lo-Fi Version Support form
Copyrights and abuse reports form
Time is now: 20th November 2019 - 04:51:20