Welcome Guest ( Log In | Register )

> Releases Upload / Добавление релизов

Добавить релиз тут / Click here to add release
Рекомендованные обменники / Recommended file shares

 
Reply to this topicStart new topic
> Ghastly Sound - Have A Nice Day (2019), Sludge/Stoner Metal
post Sep 12 2019, 16:27:53
Post #1

Serial Uploader
Group Icon
Group: V.I.P
Posts: 36,147
Releases: 34346
From: Lithuania
On Forums: 11 years 3 months
Thanks: 398344 time(s)
Lithuania


(IMG:https://metalarea.org/images/audiocovers/2019_Sep/acov_tid327309_thumb.jpg)

*Artist: Ghastly Sound
*Album: Have A Nice Day
*Year: 2019
*Genre: Sludge/Stoner Metal
*Country: United States (IMG:https://metalarea.org/forum/style_images/flags/United%20States.png)
*Format: mp3@CBR320kbps
*Size: 64MB

Tracklist:
01. Bait and Switch
02. We're All Shadows
03. Deathlogic
04. War
05. No Security
06. Selina Kyle
07. The Holocene Has Ended
08. Electric Tumor
09. Have a Nice Day
******************************
Total playing time: 27:49




Technical info
(IMG:https://metalarea.org/images/spectrogram/2019_Sep/12bacc582427f0ac4f9602d306caeaf1.png)
Input File: 02. We\'re All Shadows.mp3
Channels : 2
Sample Rate : 44100
Precision : 16-bit
Duration : 00:04:20.54 = 11489638 samples = 19540.2 CDDA sectors
File Size : 10.6M
Bit Rate : 324k
Sample Encoding: MPEG audio (layer I, II or III)
Comments :
Title=We're All Shadows
Artist=Ghastly Sound
Album=Have a Nice Day
Tracknumber=2/9
Year=2019
Genre=9
Discnumber=1/1



Register


Go to the top of the page
  Insert nick Quick quote
+Quote Post

Reply to this topicStart new topic
1 User(s) are reading this topic (1 Guests and 0 Anonymous Users)
0 Members:

 



- Lo-Fi Version Support form
Copyrights and abuse reports form
Time is now: 21st September 2019 - 05:46:22