Welcome Guest ( Log In | Register )

> Releases Upload / Добавление релизов

Добавить релиз тут / Click here to add release
Рекомендованные обменники / Recommended file shares

> Wash Of Sounds - Heaven's Crying (2019), Symphonic Heavy Metal
post Sep 12 2019, 16:35:19
Post #1

Serial Uploader
Group Icon
Group: V.I.P
Posts: 36,147
Releases: 34346
From: Lithuania
On Forums: 11 years 3 months
Thanks: 398336 time(s)
Lithuania


(IMG:https://metalarea.org/images/audiocovers/2019_Sep/acov_tid327310_thumb.jpg)

*Artist: Wash Of Sounds
*Album: Heaven's Crying
*Year: 2019
*Genre: Symphonic Heavy Metal
*Country: Greece (IMG:https://metalarea.org/forum/style_images/flags/Greece.png)
*Format: mp3@CBR320kbps
*Size: 95MB

Tracklist:
01. For Real
02. The Fall
03. Fight
04. Dead End
05. Get Lost
06. Saddest Truth
07. Blackness
08. Hit the Ground
09. Heaven's Crying
******************************
Total playing time: 41:16



Technical info
(IMG:https://metalarea.org/images/spectrogram/2019_Sep/adcc1fa47cd803c2987eec0e23a3bccd.png)
Input File: 2 - The Fall.mp3
Channels : 2
Sample Rate : 44100
Precision : 16-bit
Duration : 00:04:29.86 = 11900782 samples = 20239.4 CDDA sectors
File Size : 10.9M
Bit Rate : 323k
Sample Encoding: MPEG audio (layer I, II or III)
Comments :
Title=The Fall
Artist=Wash Of Sounds
Album=Heaven's Crying
Tracknumber=2
Year=2019
Genre=Rock/Hard Rock/Metal
Discnumber=1



Register


Go to the top of the page
  Insert nick Quick quote
+Quote Post
 
Start new topic
Replies (1 - 1)
post Sep 13 2019, 09:28:11
Post #2

hearer & reader
**************
Group: Металариец
Posts: 8,041
Releases: 104
From: Moscow
On Forums: 12 years 1 week
Thanks: 7526 time(s)
Russian Federation




Никакой симфоничности нет. Melodic Heavy/AOR/Hard rock.


Thanks:
Go to the top of the page
  Insert nick Quick quote
+Quote Post

Reply to this topicStart new topic
1 User(s) are reading this topic (1 Guests and 0 Anonymous Users)
0 Members:

 



- Lo-Fi Version Support form
Copyrights and abuse reports form
Time is now: 21st September 2019 - 05:35:54