Welcome Guest ( Log In | Register )

> Br00Tal Beefcake - Based On True Events (2019), Thrash Metal
post Sep 12 2019, 16:36:25
Post #1

Правь статус, ####!111
**************
Group: Металариец
Posts: 20,607
Releases: 14064
From: Г.Харьков
On Forums: 7 years 9 months
Thanks: 248015 time(s)
Unknown


(IMG:https://metalarea.org/images/audiocovers/2019_Sep/acov_tid327311_thumb.jpg)

*Artist: Br00Tal Beefcake
*Album: Based On True Events
*Year: 2019
*Genre: Thrash Metal
*Country: United States (IMG:https://metalarea.org/forum/style_images/flags/United%20States.png)
*Format: mp3@CBR320kbps
*Size: 103MB

Tracklist:
01. Ground Rules
02. Hairstyles I Like
03. What's That Smell?
04. I'm an Ass, You're an Ass
05. Folks Who Like to Read
06. Dude Ranch
07. Magnets
08. Mirror of Dickception
09. Saturday Morning Brainstorming
10. Chicks Who Can Dance
11. Folks of Interest
12. Moot Points
13. Property Lines
14. Dead Bodies in the Attic
15. Kung Fu Gandhi
16. D.V.R.
17. Password (Your Name)
18. Letters to My Family
******************************
Total playing time: 48:41



Extended info
Ian MacDonald - Guitars, Bass, Drums, Lyrics, backing vocals
Kyle Navarre- Vocals


Technical info
(IMG:https://metalarea.org/images/spectrogram/2019_Sep/a9e582f5c74bfee715d8e0cf79a1f8e7.png)
Input File: 04. I\'m an Ass, You\'re an Ass.mp3
Channels : 2
Sample Rate : 44100
Precision : 16-bit
Duration : 00:03:35.21 = 9490805 samples = 16140.8 CDDA sectors
File Size : 8.76M
Bit Rate : 326k
Sample Encoding: MPEG audio (layer I, II or III)
Comments :
Title=I'm an Ass, You're an Ass
Artist=Br00tal Beefcake
Album=Based on True Events
Tracknumber=4/18
Year=2019
Genre=9
Discnumber=1/1



Register


Go to the top of the page
  Insert nick Quick quote
+Quote Post
 
Start new topic
Replies (1 - 2)
post Sep 13 2019, 09:22:24
Post #2

hearer & reader
**************
Group: Металариец
Posts: 8,363
Releases: 116
From: Moscow
On Forums: 12 years 5 months
Thanks: 7986 time(s)
Russian Federation




Thanks:
(1) Andrew,
Go to the top of the page
  Insert nick Quick quote
+Quote Post
post Sep 13 2019, 23:55:53
Post #3

Правь статус, ####!111
**************
Group: Металариец
Posts: 4,513
Releases: 0
From: Одесса
On Forums: 11 years 11 months
Thanks: 2982 time(s)
Unknown


(IMG:style_emoticons/default/21.gif)
Go to the top of the page
  Insert nick Quick quote
+Quote Post

Reply to this topicStart new topic
1 User(s) are reading this topic (1 Guests and 0 Anonymous Users)
0 Members:

 



- Lo-Fi Version Support form
Copyrights and abuse reports form
Time is now: 18th February 2020 - 13:24:55