Welcome Guest ( Log In | Register )

> Sidian - Carry My Bones [ep] (2019), Progressive Death Metal
post Sep 12 2019, 16:41:45
Post #1

Serial Uploader
Group Icon
Group: V.I.P
Posts: 37,124
Releases: 35308
From: Lithuania
On Forums: 11 years 11 months
Thanks: 419389 time(s)
Lithuania


(IMG:https://metalarea.org/images/audiocovers/2019_Sep/acov_tid327312_thumb.jpg)

*Artist: Sidian
*Album: Carry My Bones [ep]
*Year: 2019
*Genre: Progressive Death Metal
*Country: United States (IMG:https://metalarea.org/forum/style_images/flags/United%20States.png)
*Format: mp3@CBR320kbps
*Size: 54MB

Tracklist:
01. Fathers (feat. Taylor Wientjes)
02. Pillars
03. A Delicate Thread (feat. Randy Abbott)
04. Morning Agony
05. The Shallow Grave of Inherent Hate
06. Servility
******************************
Total playing time: 23:29



(IMG:https://metalarea.org/images/youtube.png)

Technical info
(IMG:https://metalarea.org/images/spectrogram/2019_Sep/504db17041eb5eecc9e34909d2b456e2.png)
Input File: 02. Pillars.mp3
Channels : 2
Sample Rate : 44100
Precision : 16-bit
Duration : 00:04:15.13 = 11251189 samples = 19134.7 CDDA sectors
File Size : 10.3M
Bit Rate : 322k
Sample Encoding: MPEG audio (layer I, II or III)
Comments :
Title=Pillars
Artist=Sidian
Album=Carry My Bones
Tracknumber=2/6
Year=2019
Genre=9
Discnumber=1/1



Register


Go to the top of the page
  Insert nick Quick quote
+Quote Post
 
Start new topic
Replies (1 - 3)
post Jan 22 2020, 19:53:47
Post #2

brutalcesar
**************
Group: Металариец
Posts: 17,925
Releases: 67
From: Рязань
On Forums: 11 years 4 months
Thanks: 9776 time(s)
Russian Federation


Вряд ли прог. Скорее уж кор. Некую авангардную составляющую, что неявно маячит на заднем плане не назвать прогом. А вокалист привносит хаос и надрыв, больше ничего
Go to the top of the page
  Insert nick Quick quote
+Quote Post
post Jan 22 2020, 21:10:23
Post #3

Правь статус, ####!111
**************
Group: Металариец
Posts: 8,143
Releases: 0
From: Москва
On Forums: 10 years 9 months
Thanks: 14494 time(s)
Russian Federation


Перезалейте плз
Go to the top of the page
  Insert nick Quick quote
+Quote Post
post Jan 25 2020, 19:41:13
Post #4

Group Icon
Group: S-moderation team
Posts: 15,559
Releases: 1440
From: Zagreb
On Forums: 9 years 3 months
Thanks: 69210 time(s)
Croatia


Register


Thanks:
Go to the top of the page
  Insert nick Quick quote
+Quote Post

Reply to this topicStart new topic
1 User(s) are reading this topic (1 Guests and 0 Anonymous Users)
0 Members:

 



- Lo-Fi Version Support form
Copyrights and abuse reports form
Time is now: 1st June 2020 - 04:12:42