Welcome Guest ( Log In | Register )

> Sur Austru - Meteahna Timpurilor (2019), Atmospheric Folk/Black Metal
post Sep 12 2019, 16:45:34
Post #1

Четыре Литра
****
Group: Металариец
Posts: 327
Releases: 186
On Forums: 7 years 5 months
Thanks: 4707 time(s)
Unknown


(IMG:http://metalarea.org/images/audiocovers/2019_Sep/acov_tid327313_thumb.jpg)

*Artist: Sur Austru
*Album: Meteahna Timpurilor
*Year: 2019
*Genre: Atmospheric Folk/Black Metal
*Country: Romania (IMG:http://metalarea.org/forum/style_images/flags/Romania.png)
*Format: mp3@CBR320kbps
*Size: 121MB

Tracklist:
1. De dincolo de munte 05:59
2. Puhoaielor 06:40
3. Mistuind 05:29
4. Bradul cerbului 06:09
5. Jale 03:29
6. Dor Austru 11:14
7. In timp vernal 05:34
8. Jabracie 07:34
******************************
Total playing time: 52:08



Extended info
Personal purchase.

Ovidiu Corodan Bass
See also: Grimegod, ex-Negură Bunget
Nadaban Sergiu Drums
Ionut Cadariu Flute
Mihai Florea Guitars
See also: Grimegod, Wisdom's Funeral
Petrică Ionuţescu Traditional Instruments
See also: ex-Negură Bunget, ex-Din Brad (live)
Tibor Kati Vocals, Guitars, Keyboards
See also: Grimegod, Indefiance, ex-Negură Bunget, Feralia, ex-Din Brad (live)
Stefan Zaharescu Vocals, Percussion, Toacă
See also: MG42, ex-Clitgore, ex-DinUmbră, ex-Kistvaen, ex-Sincarnate, ex-Negură Bunget


Technical info
(IMG:http://metalarea.org/images/spectrogram/2019_Sep/57a0310f63628f887fe0db6f3ba842c8.png)
Input File: Sur Austru - Meteahna Timpurilor - 01 De Dincolo de munte.mp3
Channels : 2
Sample Rate : 44100
Precision : 16-bit
Duration : 00:05:59.10 = 15836266 samples = 26932.4 CDDA sectors
File Size : 14.5M
Bit Rate : 323k
Sample Encoding: MPEG audio (layer I, II or III)
Comments :
Title=De Dincolo de munte
Artist=Sur Austru
Album=Meteahna Timpurilor
Tracknumber=1
Year=2019



Register


Go to the top of the page
  Insert nick Quick quote
+Quote Post
 
Start new topic
Replies (1 - 5)
post Sep 13 2019, 05:10:11
Post #2

i listen to black metal
**************
Group: Металариец
Posts: 2,527
Releases: 130
From: Москва-Лианозово
On Forums: 13 years 2 months
Thanks: 2112 time(s)
Russian Federation


(IMG:style_emoticons/default/15.gif) (IMG:style_emoticons/default/15.gif) (IMG:style_emoticons/default/15.gif)
как всё получилось- послушал и стёр сразу,потому что был транскод...
Go to the top of the page
  Insert nick Quick quote
+Quote Post
post Nov 2 2019, 09:02:12
Post #3

В чистоте и единстве:мысль-слово-дело
**************
Group: Металариец
Posts: 2,409
Releases: 9
From: Киев
On Forums: 12 years 7 months
Thanks: 1393 time(s)
Ukraine


ЦИТАТА(Victim of fate @ 13th September 2019 - 07:10:11) *
как всё получилось- послушал и стёр сразу,потому что был транскод...

многих уже не интересует музыка. а интересно лишь качество. транскод или 320. рип с СД или транскод из 128.
люди стали жить исключительно в цифре. можно записать белый шум в идеальном качестве. и это будет лучше всяких мелодий.
это грустно конечно. альбом очень похож на мою любимую Негуру. атмосферно,шаманско и очень свежо звучит.


Thanks:
Go to the top of the page
  Insert nick Quick quote
+Quote Post
post Dec 23 2019, 09:53:21
Post #4

Литр
*
Group: Подсевший
Posts: 87
Releases: 1
From: г. Нальчик
On Forums: 7 years 2 months
Thanks: 212 time(s)
Russian Federation


Sur Austru - Meteahna Timpurilor (2019) FLAC (tracks), lossless 357 MB
Register

Formed by members of Negură Bunget following Gabriel Mafa's death.


Go to the top of the page
  Insert nick Quick quote
+Quote Post
post Yesterday, 11:52:36
Post #5

FOLK METAL FEVER
**************
Group: Металариец
Posts: 2,038
Releases: 6
From: Kyiv
On Forums: 12 years 3 months
Thanks: 270 time(s)
Ukraine


Moonspell даже попахивает, но скверно (IMG:style_emoticons/default/smile2.gif)
Go to the top of the page
  Insert nick Quick quote
+Quote Post
post Yesterday, 12:00:59
Post #6

Шесть Литров
******
Group: Металариец
Posts: 516
Releases: 0
On Forums: 2 months 3 weeks
Thanks: 382 time(s)
Russian Federation


ЦИТАТА(Луч @ Nov 2 2019, 13:02:12) *
можно записать белый шум в идеальном качестве. и это будет лучше всяких мелодий.

Эстетика шумовой ипостаси индастриала подразумевает низкое качество записи в исходнике, поэтому как раз там битрейт не столь важен, если он не влияет на объёмность звука конечно. Это я к тому что даже Genocide Organ пережатый в 64 кбита в секунду не будет звучать.
Go to the top of the page
  Insert nick Quick quote
+Quote Post

Reply to this topicStart new topic
1 User(s) are reading this topic (1 Guests and 0 Anonymous Users)
0 Members:

 



- Lo-Fi Version Support form
Copyrights and abuse reports form
Time is now: 22nd February 2020 - 01:27:26