Welcome Guest ( Log In | Register )

> Releases Upload / Добавление релизов

Добавить релиз тут / Click here to add release
Рекомендованные обменники / Recommended file shares

> Sur Austru - Meteahna Timpurilor (2019), Atmospheric Folk/Black Metal
post Sep 12 2019, 16:45:34
Post #1

Три Литра
***
Group: Завсегдатай
Posts: 275
Releases: 145
On Forums: 7 years 1 week
Thanks: 3496 time(s)
Unknown


(IMG:http://metalarea.org/images/audiocovers/2019_Sep/acov_tid327313_thumb.jpg)

*Artist: Sur Austru
*Album: Meteahna Timpurilor
*Year: 2019
*Genre: Atmospheric Folk/Black Metal
*Country: Romania (IMG:http://metalarea.org/forum/style_images/flags/Romania.png)
*Format: mp3@CBR320kbps
*Size: 121MB

Tracklist:
1. De dincolo de munte 05:59
2. Puhoaielor 06:40
3. Mistuind 05:29
4. Bradul cerbului 06:09
5. Jale 03:29
6. Dor Austru 11:14
7. In timp vernal 05:34
8. Jabracie 07:34
******************************
Total playing time: 52:08



Extended info
Personal purchase.

Ovidiu Corodan Bass
See also: Grimegod, ex-Negură Bunget
Nadaban Sergiu Drums
Ionut Cadariu Flute
Mihai Florea Guitars
See also: Grimegod, Wisdom's Funeral
Petrică Ionuţescu Traditional Instruments
See also: ex-Negură Bunget, ex-Din Brad (live)
Tibor Kati Vocals, Guitars, Keyboards
See also: Grimegod, Indefiance, ex-Negură Bunget, Feralia, ex-Din Brad (live)
Stefan Zaharescu Vocals, Percussion, Toacă
See also: MG42, ex-Clitgore, ex-DinUmbră, ex-Kistvaen, ex-Sincarnate, ex-Negură Bunget


Technical info
(IMG:http://metalarea.org/images/spectrogram/2019_Sep/57a0310f63628f887fe0db6f3ba842c8.png)
Input File: Sur Austru - Meteahna Timpurilor - 01 De Dincolo de munte.mp3
Channels : 2
Sample Rate : 44100
Precision : 16-bit
Duration : 00:05:59.10 = 15836266 samples = 26932.4 CDDA sectors
File Size : 14.5M
Bit Rate : 323k
Sample Encoding: MPEG audio (layer I, II or III)
Comments :
Title=De Dincolo de munte
Artist=Sur Austru
Album=Meteahna Timpurilor
Tracknumber=1
Year=2019



Register


Go to the top of the page
  Insert nick Quick quote
+Quote Post
 
Start new topic
Replies (1 - 1)
post Sep 13 2019, 05:10:11
Post #2

i listen to black metal
**************
Group: Металариец
Posts: 2,379
Releases: 129
From: Москва-Лианозово
On Forums: 12 years 8 months
Thanks: 2062 time(s)
Russian Federation


(IMG:style_emoticons/default/15.gif) (IMG:style_emoticons/default/15.gif) (IMG:style_emoticons/default/15.gif)
как всё получилось- послушал и стёр сразу,потому что был транскод...
Go to the top of the page
  Insert nick Quick quote
+Quote Post

Reply to this topicStart new topic
1 User(s) are reading this topic (1 Guests and 0 Anonymous Users)
0 Members:

 



- Lo-Fi Version Support form
Copyrights and abuse reports form
Time is now: 21st September 2019 - 05:41:57