Welcome Guest ( Log In | Register )

> Releases Upload / Добавление релизов

Добавить релиз тут / Click here to add release
Рекомендованные обменники / Recommended file shares

> Devilish Impressions - Postmortem Whispering Crows [ep] (2019), Symphonic Black/Death Metal (D)
post Sep 12 2019, 16:54:51
Post #1

Serial Uploader
Group Icon
Group: V.I.P
Posts: 36,147
Releases: 34346
From: Lithuania
On Forums: 11 years 3 months
Thanks: 398356 time(s)
Lithuania


(IMG:https://metalarea.org/images/audiocovers/2019_Sep/acov_tid327315_thumb.jpg)

*Artist: Devilish Impressions
*Album: Postmortem Whispering Crows [ep]
*Year: 2019
*Genre: Symphonic Black/Death Metal
*Country: Poland (IMG:https://metalarea.org/forum/style_images/flags/Poland.png)
*Format: mp3@CBR320kbps
*Size: 37MB

Tracklist:
01. Dvma 05:15
02. Cingvlvm Diaboli 04:50
03. Interregnvm 06:12
******************************
Total playing time: 16:17

(IMG:https://metalarea.org/images/myspace.png)





Technical info
(IMG:https://metalarea.org/images/spectrogram/2019_Sep/200d85616cb90844be1ad2a8aba14a89.png)
Input File: 2 - Cingvlvm Diaboli.mp3
Channels : 2
Sample Rate : 44100
Precision : 16-bit
Duration : 00:04:50.39 = 12806331 samples = 21779.5 CDDA sectors
File Size : 11.7M
Bit Rate : 322k
Sample Encoding: MPEG audio (layer I, II or III)
Comments :
Title=Cingvlvm Diaboli
Artist=Devilish Impressions
Album=Postmortem Whispering Crows
Tracknumber=2
Year=2019
Genre=Metal
Discnumber=1



Register


Go to the top of the page
  Insert nick Quick quote
+Quote Post
 
Start new topic
Replies (1 - 1)
post Sep 12 2019, 21:07:24
Post #2

Шесть Литров
******
Group: Металариец
Posts: 586
Releases: 75
On Forums: 11 years 3 weeks
Thanks: 1690 time(s)
Portugal


Стиль: Experimental Black/Death Metal
Register


Go to the top of the page
  Insert nick Quick quote
+Quote Post

Reply to this topicStart new topic
1 User(s) are reading this topic (1 Guests and 0 Anonymous Users)
0 Members:

 



- Lo-Fi Version Support form
Copyrights and abuse reports form
Time is now: 21st September 2019 - 05:57:48