Welcome Guest ( Log In | Register )

> Releases Upload / Добавление релизов

Добавить релиз тут / Click here to add release
Рекомендованные обменники / Recommended file shares

> Eradikator - Obscura (2019), Thrash Metal
post Sep 12 2019, 17:16:42
Post #1

Правь статус, ####!111
**************
Group: Металариец
Posts: 18,575
Releases: 12575
From: Г.Харьков
On Forums: 7 years 4 months
Thanks: 213043 time(s)
Unknown


(IMG:https://metalarea.org/images/audiocovers/2019_Sep/acov_tid327316_thumb.jpg)

*Artist: Eradikator
*Album: Obscura
*Year: 2019
*Genre: Thrash Metal
*Country: United Kingdom (IMG:https://metalarea.org/forum/style_images/flags/United%20Kingdom.png)
*Format: mp3@CBR320kbps
*Size: 108MB

Tracklist:
1. Nightmare Dawning 03:55
2. Poisoned to Sorrow 04:25
3. Revolve 05:01
4. Haunting 05:54
5. Hourglass 05:21
6. Eyes of Old 06:29
7. Bound to You 03:45
8. I Want to Believe 06:46
9. The Siren Song 05:19
******************************
Total playing time: 46:55




Extended info
Pat Cox Bass, Vocals
See also: ex-Sons of Chaos
Jon MacNevin Drums
Andy MacNevin Guitars
Liam Priest Guitars



Technical info
(IMG:https://metalarea.org/images/spectrogram/2019_Sep/e998f827bde21c783606ec15c6ed23ba.png)
Input File: 3 - Revolve.mp3
Channels : 2
Sample Rate : 44100
Precision : 16-bit
Duration : 00:05:01.55 = 13298267 samples = 22616.1 CDDA sectors
File Size : 12.1M
Bit Rate : 322k
Sample Encoding: MPEG audio (layer I, II or III)
Comments :
Title=Revolve
Artist=Eradikator
Album=Obscura
Tracknumber=3
Year=2019
Genre=Metal
Discnumber=1



Register


Go to the top of the page
  Insert nick Quick quote
+Quote Post
 
Start new topic
Replies (1 - 3)
post Sep 12 2019, 18:38:53
Post #2

Правь статус, ####!111
**************
Group: Металариец
Posts: 18,575
Releases: 12575
From: Г.Харьков
On Forums: 7 years 4 months
Thanks: 213043 time(s)
Unknown


Cloud Mail 320
Register


Go to the top of the page
  Insert nick Quick quote
+Quote Post
post Sep 13 2019, 07:16:52
Post #3

Три Литра
***
Group: Завсегдатай
Posts: 268
Releases: 0
From: Kyiv
On Forums: 7 years 5 months
Thanks: 101 time(s)
Ukraine


Какой-то хевиметал. С таким названием и облогой ждешь чего-то не менее трясучего, чем Violator)


Thanks:
Go to the top of the page
  Insert nick Quick quote
+Quote Post
post Sep 13 2019, 07:46:07
Post #4

Правь статус, ####!111
**************
Group: Металариец
Posts: 2,620
Releases: 8
From: Dnipro
On Forums: 11 years 2 months
Thanks: 802 time(s)
Ukraine


ЦИТАТА(kessler @ Sep 13 2019, 09:16:52) *
Какой-то хевиметал. С таким названием и облогой ждешь чего-то не менее трясучего, чем Violator)

Так они всегда такими и были, с достаточной примесью хэви.
Да и облога под суровый трэшак не катит, больше на heavy power смахивает.


Thanks:
Go to the top of the page
  Insert nick Quick quote
+Quote Post

Reply to this topicStart new topic
2 User(s) are reading this topic (2 Guests and 0 Anonymous Users)
0 Members:

 



- Lo-Fi Version Support form
Copyrights and abuse reports form
Time is now: 21st September 2019 - 06:06:08