Welcome Guest ( Log In | Register )

> Phosphorus - Slaves Of Death (2019), Heavy/Thrash Metal
post Sep 12 2019, 17:59:48
Post #1

Правь статус, ####!111
**************
Group: Металариец
Posts: 20,607
Releases: 14064
From: Г.Харьков
On Forums: 7 years 9 months
Thanks: 248019 time(s)
Unknown


(IMG:https://metalarea.org/images/audiocovers/2019_Sep/acov_tid327317_thumb.jpg)

*Artist: Phosphorus
*Album: Slaves Of Death
*Year: 2019
*Genre: Heavy/Thrash Metal
*Country: Mexico (IMG:https://metalarea.org/forum/style_images/flags/Mexico.png)
*Format: mp3@CBR320kbps
*Size: 130MB

Tracklist:
01. The Judgement
02. Slaves of Death
03. Jaguar
04. King of Fear
05. Patriot I
06. Patriot II
07. Due to Hell
08. 68
09. Smokescreens
10. Beautiful
11. Love in Cause
12. Thanatophobia
******************************
Total playing time: 56:17



Extended info
Daniel Lugo - Guitarrista
Etzael Aguayo - Bajista
Karla Gonzalez - Vocalista
Jose Carlos Gonzalez - Baterista



Technical info
(IMG:https://metalarea.org/images/spectrogram/2019_Sep/187982b4332a2b587997994eeca40d02.png)
Input File: 04 - King of Fear.mp3
Channels : 2
Sample Rate : 44100
Precision : 16-bit
Duration : 00:05:59.18 = 15839706 samples = 26938.3 CDDA sectors
File Size : 14.5M
Bit Rate : 323k
Sample Encoding: MPEG audio (layer I, II or III)
Comments :
Title=King of Fear
Artist=Phosphorus
Album=Slaves of Death
Tracknumber=4
Year=2019-07-18
Genre=Rock
Discnumber=1



Register


Go to the top of the page
  Insert nick Quick quote
+Quote Post
 
Start new topic
Replies (1 - 1)
post Jan 22 2020, 19:50:53
Post #2

brutalcesar
**************
Group: Металариец
Posts: 17,879
Releases: 67
From: Рязань
On Forums: 11 years 1 month
Thanks: 9535 time(s)
Russian Federation


Легковесная харда, или сладкий хэви))
Местми просто рок какой-то. Но даже там, где есть куски трэша - они звучат тоже как рок (IMG:style_emoticons/default/crazy.gif)
Go to the top of the page
  Insert nick Quick quote
+Quote Post

Reply to this topicStart new topic
1 User(s) are reading this topic (1 Guests and 0 Anonymous Users)
0 Members:

 



- Lo-Fi Version Support form
Copyrights and abuse reports form
Time is now: 18th February 2020 - 14:36:14