Welcome Guest ( Log In | Register )

> Releases Upload / Добавление релизов

Добавить релиз тут / Click here to add release
Рекомендованные обменники / Recommended file shares

 
Reply to this topicStart new topic
> Phosphorus - Slaves Of Death (2019), Heavy/Thrash Metal
post Sep 12 2019, 17:59:48
Post #1

Правь статус, ####!111
**************
Group: Металариец
Posts: 18,575
Releases: 12575
From: Г.Харьков
On Forums: 7 years 4 months
Thanks: 213050 time(s)
Unknown


(IMG:https://metalarea.org/images/audiocovers/2019_Sep/acov_tid327317_thumb.jpg)

*Artist: Phosphorus
*Album: Slaves Of Death
*Year: 2019
*Genre: Heavy/Thrash Metal
*Country: Mexico (IMG:https://metalarea.org/forum/style_images/flags/Mexico.png)
*Format: mp3@CBR320kbps
*Size: 130MB

Tracklist:
01. The Judgement
02. Slaves of Death
03. Jaguar
04. King of Fear
05. Patriot I
06. Patriot II
07. Due to Hell
08. 68
09. Smokescreens
10. Beautiful
11. Love in Cause
12. Thanatophobia
******************************
Total playing time: 56:17



Extended info
Daniel Lugo - Guitarrista
Etzael Aguayo - Bajista
Karla Gonzalez - Vocalista
Jose Carlos Gonzalez - Baterista



Technical info
(IMG:https://metalarea.org/images/spectrogram/2019_Sep/187982b4332a2b587997994eeca40d02.png)
Input File: 04 - King of Fear.mp3
Channels : 2
Sample Rate : 44100
Precision : 16-bit
Duration : 00:05:59.18 = 15839706 samples = 26938.3 CDDA sectors
File Size : 14.5M
Bit Rate : 323k
Sample Encoding: MPEG audio (layer I, II or III)
Comments :
Title=King of Fear
Artist=Phosphorus
Album=Slaves of Death
Tracknumber=4
Year=2019-07-18
Genre=Rock
Discnumber=1



Register


Go to the top of the page
  Insert nick Quick quote
+Quote Post

Reply to this topicStart new topic
1 User(s) are reading this topic (1 Guests and 0 Anonymous Users)
0 Members:

 



- Lo-Fi Version Support form
Copyrights and abuse reports form
Time is now: 21st September 2019 - 06:14:05