Welcome Guest ( Log In | Register )

> Releases Upload / Добавление релизов

Добавить релиз тут / Click here to add release
Рекомендованные обменники / Recommended file shares

> Eryx - Killing For Escape (2019), Thrash/Groove Metal
post Sep 12 2019, 18:28:00
Post #1

Правь статус, ####!111
**************
Group: Металариец
Posts: 18,597
Releases: 12590
From: Г.Харьков
On Forums: 7 years 4 months
Thanks: 213281 time(s)
Unknown


(IMG:https://metalarea.org/images/audiocovers/2019_Sep/acov_tid327319_thumb.jpg)

*Artist: Eryx
*Album: Killing For Escape
*Year: 2019
*Genre: Thrash/Groove Metal
*Country: Russian Federation (IMG:https://metalarea.org/forum/style_images/flags/Russian%20Federation.png)
*Format: mp3@CBR320kbps
*Size: 63MB

Tracklist:
1. Final Prayer 04:32
2. Lost 04:15
3. Kings of Nothing Life 05:08
4. Blood Runs Slowly 03:53
5. Killing for Escape 03:31
6. Dead Men Attack 04:11
7. За горизонт 04:22
******************************
Total playing time: 29:52




Extended info
Oleg Ayvazyan Guitars
Timur Kerimov Drums (2011-present)
Evgeny Chistyakov Guitars (2011-present)
Vladimir Gushuley Bass (2012-present)
Anton Kornilin Vocals (2014-present)


Technical info
(IMG:https://metalarea.org/images/spectrogram/2019_Sep/388345695809d39fc765c4460b463825.png)
Input File: 03 - Kings of Nothing Life.mp3
Channels : 2
Sample Rate : 44100
Precision : 16-bit
Duration : 00:05:08.81 = 13618521 samples = 23160.8 CDDA sectors
File Size : 12.5M
Bit Rate : 323k
Sample Encoding: MPEG audio (layer I, II or III)
Comments :
Title=Kings Of Nothing Life
Artist=Eryx
Album=Killing For Escape
Tracknumber=03/07
Year=2019
Genre=Метал
Discnumber=1/1



Register


Go to the top of the page
  Insert nick Quick quote
+Quote Post
 
Start new topic
Replies (1 - 4)
post Sep 12 2019, 21:06:02
Post #2

MDM-Thrash Metal
**************
Group: Металариец
Posts: 8,711
Releases: 609
From: Одесса
On Forums: 12 years 1 month
Thanks: 17478 time(s)
Ukraine


Кстати, сыграно очень даже ничего. Но вот этот дурацкий и вокал и манера исполнения все портят!
Go to the top of the page
  Insert nick Quick quote
+Quote Post
post Sep 12 2019, 21:47:54
Post #3

Group: Подсевший
Posts: 31
Releases: 0
On Forums: 1 year 1 month
Thanks: 147 time(s)
Russian Federation


Вокал вполне удобоваримый, тяготеющий более к хардкору и общее впечатление никак не портящий. Достойный релиз.


Go to the top of the page
  Insert nick Quick quote
+Quote Post
post Sep 13 2019, 08:51:25
Post #4

тебе 28, а ты все реверсами балуешься
***********
Group: Металариец
Posts: 1,718
Releases: 4
On Forums: 11 years 1 month
Thanks: 489 time(s)
Russian Federation


Жирнючая пачка с сочным звонким басом качает знатно!
От "дурацкого" вокала я ожидал какой-то реальной фигни, но тут всё как я люблю - подача мощная и хардкорная.

Зачёт что из России (IMG:style_emoticons/default/20.gif)


Go to the top of the page
  Insert nick Quick quote
+Quote Post
post Today, 20:26:22
Post #5

Маньяк
**********
Group: Металариец
Posts: 1,227
Releases: 44
From: Moscow
On Forums: 13 years 2 months
Thanks: 1030 time(s)
Russian Federation


Классный альбом! (IMG:style_emoticons/default/20.gif)


Thanks:
Go to the top of the page
  Insert nick Quick quote
+Quote Post

Reply to this topicStart new topic
2 User(s) are reading this topic (2 Guests and 0 Anonymous Users)
0 Members:

 



- Lo-Fi Version Support form
Copyrights and abuse reports form
Time is now: 21st September 2019 - 23:22:26