Welcome Guest ( Log In | Register )

> Releases Upload / Добавление релизов

Добавить релиз тут / Click here to add release
Рекомендованные обменники / Recommended file shares

 
Reply to this topicStart new topic
> Exorcisme - Visceral Lifestyles [demo] (2019), Black/Speed Metal/Punk
post Sep 12 2019, 20:23:24
Post #1

𝕻𝕬𝕹𝕬𝕮𝕰𝕬
******
Group: Металариец
Posts: 692
Releases: 388
On Forums: 7 years 3 months
Thanks: 5828 time(s)
Unknown


(IMG:http://metalarea.org/images/audiocovers/2019_Sep/acov_tid327321_thumb.jpg)

*Artist: Exorcisme
*Album: Visceral Lifestyles [demo]
*Year: 2019
*Genre: Black/Speed Metal/Punk
*Country: United States (IMG:http://metalarea.org/forum/style_images/flags/United%20States.png)
*Format: mp3@CBR320kbps
*Size: 18MB

Tracklist:
1. Enter The Flames 03:08
2. Behold Eternity 03:52
******************************
Total playing time: 7:00



Technical info
(IMG:http://metalarea.org/images/spectrogram/2019_Sep/f8d7f62a02c126851b3e342d0f2fafb6.png)
Input File: 01 - Enter The Flames.mp3
Channels : 2
Sample Rate : 44100
Precision : 16-bit
Duration : 00:03:08.88 = 8329520 samples = 14165.9 CDDA sectors
File Size : 7.72M
Bit Rate : 327k
Sample Encoding: MPEG audio (layer I, II or III)
Comments :
Title=Enter The Flames
Artist=Exorcisme
Album=Visceral Lifestyles
Tracknumber=1
Year=2019
Genre=Black/Speed Metal/Punk



Register


Go to the top of the page
  Insert nick Quick quote
+Quote Post

Reply to this topicStart new topic
1 User(s) are reading this topic (1 Guests and 0 Anonymous Users)
0 Members:

 



- Lo-Fi Version Support form
Copyrights and abuse reports form
Time is now: 21st September 2019 - 06:09:25