Welcome Guest ( Log In | Register )

> Releases Upload / Добавление релизов

Добавить релиз тут / Click here to add release
Рекомендованные обменники / Recommended file shares

 
Reply to this topicStart new topic
> Mephitic Corpse - Immense Thickening Vomit [demo] (2019), Death Metal
post Sep 12 2019, 22:32:52
Post #1

Семь Литров
*******
Group: Металариец
Posts: 781
Releases: 19
From: Saint-Petersburg
On Forums: 10 years 2 weeks
Thanks: 1697 time(s)
Russian Federation


(IMG:http://metalarea.org/images/audiocovers/2019_Sep/acov_tid327328_thumb.jpg)

*Artist: Mephitic Corpse
*Album: Immense Thickening Vomit [demo]
*Year: 2019
*Genre: Death Metal
*Country: United States (IMG:http://metalarea.org/forum/style_images/flags/United%20States.png)
*Format: mp3@CBR320kbps
*Size: 29MB

Tracklist:
1. Unpleasant Throbbing Sensation 04:03
2. Fuming Mutation 04:21
3. Drinking Liquid Rot 04:19
******************************
Total playing time: 12:43

(IMG:http://metalarea.org/images/youtube.png)

Extended info
Grinding filth-ridden death metal from San Luis Obispo, California! Total old school worship along the lines of: Grotesque Infection, Immortal Fate, Carcinogen and Gutted Pulp!
http://headsplitrecords.storenvy.com/products/28602521-mephitic-corpse-immense-thickening-vomit


Technical info
(IMG:http://metalarea.org/images/spectrogram/2019_Sep/d25f14532a45eec42950f222592bf9b6.png)
Input File: 01. Unpleasant Throbbing Sensation.mp3
Channels : 2
Sample Rate : 48000
Precision : 16-bit
Duration : 00:04:03.44 = 11684880 samples ~ 18257.6 CDDA sectors
File Size : 9.74M
Bit Rate : 320k
Sample Encoding: MPEG audio (layer I, II or III)
Comments :
Title=Unpleasant Throbbing Sensation
Artist=Mephitic Corpse
Album=Immense Thickening Vomit
Tracknumber=1
Year=2019
Genre=12



Register


Go to the top of the page
  Insert nick Quick quote
+Quote Post

Reply to this topicStart new topic
1 User(s) are reading this topic (1 Guests and 0 Anonymous Users)
0 Members:

 



- Lo-Fi Version Support form
Copyrights and abuse reports form
Time is now: 21st September 2019 - 05:46:28