Welcome Guest ( Log In | Register )

> Releases Upload / Добавление релизов

Добавить релиз тут / Click here to add release
Рекомендованные обменники / Recommended file shares

> White Mantis - Sacrifice Your Future (2019), Old School Thrash Metal
post Sep 13 2019, 00:22:21
Post #1

Правь статус, ####!111
**************
Group: Металариец
Posts: 18,575
Releases: 12575
From: Г.Харьков
On Forums: 7 years 4 months
Thanks: 213003 time(s)
Unknown


(IMG:https://metalarea.org/images/audiocovers/2019_Sep/acov_tid327331_thumb.jpg)

*Artist: White Mantis
*Album: Sacrifice Your Future
*Year: 2019
*Genre: Old School Thrash Metal
*Country: Germany (IMG:https://metalarea.org/forum/style_images/flags/Germany.png)
*Format: mp3@CBR320kbps
*Size: 88MB

Tracklist:
1. Cannibal State 03:39
2. Bleached 03:07
3. My Favorite Chainsaw 03:51
4. There's No Law on the Post-Apocalyptic Highway 05:23
5. Demonic Levity 05:26
6. Ordinary Loser 03:42
7. Down This Way 02:51
8. Cavern of the Ancients 04:40
9. The Catcher in the Grey 04:12
10. Tyrants 05:07
******************************
Total playing time: 41:58




Extended info
Jan Strobl Bass
See also: ex-Abztract Fortune, ex-Animosity, ex-Odem Arcarum
C.A. Drums
See also: Azavatar, Reign of Decay, Gräfenstein (live), ex-Abztract Fortune, ex-Odem Arcarum, ex-Infestus (live), ex-Sael
Matthias Pletz Vocals, Guitars
See also: ex-Lurid Trace
Matthias Mizera Guitars (lead) (2018-present)



Technical info
(IMG:https://metalarea.org/images/spectrogram/2019_Sep/34af7aa6bb2b6f12f9d4f29096eb89e5.png)
Input File: 04 - There`s No Law on the Post-Apocalyptic Highway.mp3
Channels : 2
Sample Rate : 44100
Precision : 16-bit
Duration : 00:05:06.93 = 13535569 samples = 23019.7 CDDA sectors
File Size : 12.3M
Bit Rate : 320k
Sample Encoding: MPEG audio (layer I, II or III)
Comments :
Title=There`s No Law on the Post-Apocalyptic Highway
Artist=White Mantis
Album=Sacrifice Your Future
Tracknumber=4
Year=2019-09-13
Discnumber=1



Register


Go to the top of the page
  Insert nick Quick quote
+Quote Post
 
Start new topic
Replies (1 - 1)
post Sep 13 2019, 21:05:58
Post #2

MDM-Thrash Metal
**************
Group: Металариец
Posts: 8,705
Releases: 606
From: Одесса
On Forums: 12 years 1 month
Thanks: 17446 time(s)
Ukraine


Отменный трешак! (IMG:style_emoticons/default/metaler.gif) Понятно, что абсолютно никаких новых и новаторских идей в музыку не привнесено, но звучит вполне достойно!


Thanks:
Go to the top of the page
  Insert nick Quick quote
+Quote Post

Reply to this topicStart new topic
1 User(s) are reading this topic (1 Guests and 0 Anonymous Users)
0 Members:

 



- Lo-Fi Version Support form
Copyrights and abuse reports form
Time is now: 21st September 2019 - 05:36:43