Welcome Guest ( Log In | Register )

> Releases Upload / Добавление релизов

Добавить релиз тут / Click here to add release
Рекомендованные обменники / Recommended file shares

> Mano Humana - Necrópolis (2019), Progressive Death Metal
post Sep 13 2019, 00:56:30
Post #1

Правь статус, ####!111
**************
Group: Металариец
Posts: 18,575
Releases: 12575
From: Г.Харьков
On Forums: 7 years 4 months
Thanks: 213005 time(s)
Unknown


(IMG:https://metalarea.org/images/audiocovers/2019_Sep/acov_tid327332_thumb.jpg)

*Artist: Mano Humana
*Album: Necrópolis
*Year: 2019
*Genre: Progressive Death Metal
*Country: Chile (IMG:https://metalarea.org/forum/style_images/flags/Chile.png)
*Format: mp3@CBR320kbps
*Size: 98MB

Tracklist:
01. Promesa De Demolicion 03:55
02. Cuchillo 06:15
03. No Vomite La Materia 05:07
04. Superavit 05:19
05. Bala Loca 01:51
06. Ley De Cerdos 03:59
07. Fuego En La Necropolis 07:13
08. Malattia 03:53
09. Emociones S.a. 04:53
******************************
Total playing time: 42:25




Extended info
Guzsano (Voz)
Diego Valenzuela (Batería)
José Ignacio Guzmán (Bajo)
Felipe Valenzuela (Guitarra)


Technical info
(IMG:https://metalarea.org/images/spectrogram/2019_Sep/ad9ddf7a250284311527be114b1cadf7.png)
Input File: 04 - Superavit.mp3
Channels : 2
Sample Rate : 44100
Precision : 16-bit
Duration : 00:05:19.97 = 14110457 samples = 23997.4 CDDA sectors
File Size : 12.9M
Bit Rate : 323k
Sample Encoding: MPEG audio (layer I, II or III)
Comments :
Title=Superavit
Artist=Mano Humana
Album=Necropolis
Tracknumber=4
Year=2019-09-12
Genre=Metal
Discnumber=1



Register


Go to the top of the page
  Insert nick Quick quote
+Quote Post
 
Start new topic
Replies (1 - 1)
post Sep 13 2019, 08:55:38
Post #2

тебе 28, а ты все реверсами балуешься
***********
Group: Металариец
Posts: 1,718
Releases: 4
On Forums: 11 years 1 month
Thanks: 489 time(s)
Russian Federation


Редкий для меня случай, когда незнакомый язык дичайше заходит.
Ну и музло прям огненное (IMG:style_emoticons/default/20.gif)
Go to the top of the page
  Insert nick Quick quote
+Quote Post

Reply to this topicStart new topic
1 User(s) are reading this topic (1 Guests and 0 Anonymous Users)
0 Members:

 



- Lo-Fi Version Support form
Copyrights and abuse reports form
Time is now: 21st September 2019 - 05:42:03