Welcome Guest ( Log In | Register )

> Releases Upload / Добавление релизов

Добавить релиз тут / Click here to add release
Рекомендованные обменники / Recommended file shares

 
Reply to this topicStart new topic
> Metabolic - Peacemaker (2019), Thrash Metal
post Sep 13 2019, 01:28:12
Post #1

Правь статус, ####!111
**************
Group: Металариец
Posts: 18,575
Releases: 12575
From: Г.Харьков
On Forums: 7 years 4 months
Thanks: 213010 time(s)
Unknown


(IMG:https://metalarea.org/images/audiocovers/2019_Sep/acov_tid327333_thumb.jpg)

*Artist: Metabolic
*Album: Peacemaker
*Year: 2019
*Genre: Thrash Metal
*Country: Germany (IMG:https://metalarea.org/forum/style_images/flags/Germany.png)
*Format: mp3@CBR320kbps
*Size: 161MB

Tracklist:
01. The Grand Declaration of Peace
02. Hellraiser
03. Areaera
04. King to the Rim
05. Rodeo
06. Quater Past Fire
07. Ghosts of Waste
08. Under the Spell
09. Jekyll and Hyde
10. Virus
11. Wargasm (Remastered)
12. Para Dies (Remastered)
13. Desperation (Remastered)
14. Equality (Remastered)
15. From Slaughter to Falling (Remastered)
16. The Reckoning (Remastered)
******************************
Total playing time: 1:09:40




Extended info
Dassi Bass
See also: Nevertrust
Brian Drums
Andy Guitars
See also: ex-Starless Aeon
Martin Guitars
Floyd Vocals
See also: Nevertrust, ex-Starless Aeon



Technical info
(IMG:https://metalarea.org/images/spectrogram/2019_Sep/784db634c4a08a88e45c7ca23a4509ab.png)
Input File: 05 - Rodeo.mp3
Channels : 2
Sample Rate : 44100
Precision : 16-bit
Duration : 00:05:18.42 = 14042498 samples = 23881.8 CDDA sectors
File Size : 12.8M
Bit Rate : 323k
Sample Encoding: MPEG audio (layer I, II or III)
Comments :
Title=Rodeo
Artist=Metabolic
Album=Peacemaker
Tracknumber=5
Year=2019-09-13
Genre=Metal
Discnumber=1



Register


Go to the top of the page
  Insert nick Quick quote
+Quote Post

Reply to this topicStart new topic
1 User(s) are reading this topic (1 Guests and 0 Anonymous Users)
0 Members:

 



- Lo-Fi Version Support form
Copyrights and abuse reports form
Time is now: 21st September 2019 - 05:49:38