Welcome Guest ( Log In | Register )

> Releases Upload / Добавление релизов

Добавить релиз тут / Click here to add release
Рекомендованные обменники / Recommended file shares

> Across The Shade - Hope (2019), Melodic Death Metal
post Sep 13 2019, 01:54:28
Post #1

Правь статус, ####!111
**************
Group: Металариец
Posts: 18,575
Releases: 12575
From: Г.Харьков
On Forums: 7 years 4 months
Thanks: 213041 time(s)
Unknown


(IMG:https://metalarea.org/images/audiocovers/2019_Sep/acov_tid327334_thumb.jpg)

*Artist: Across The Shade
*Album: Hope
*Year: 2019
*Genre: Melodic Death Metal
*Country: Poland (IMG:https://metalarea.org/forum/style_images/flags/Poland.png)
*Format: mp3@CBR320kbps
*Size: 80MB

Tracklist:
01. Hope
02. Winter Is Coming
03. Across the Shade
04. Birds of Hate
05. Bloody Roam
06. Burden
07. Rust n Snow
08. Rotting Tears
******************************
Total playing time: 34:30




Extended info
Bartek Pawlik Bass
Marcin Rzeźniczek Drums
Luq Guitars
Kamil Sikorski Vocals, Guitars (2014-present)


Technical info
(IMG:https://metalarea.org/images/spectrogram/2019_Sep/5c28b5269cf54c5927d22b10b7b9443c.png)
Input File: 04. Birds of Hate.mp3
Channels : 2
Sample Rate : 44100
Precision : 16-bit
Duration : 00:05:13.83 = 13839859 samples = 23537.2 CDDA sectors
File Size : 12.7M
Bit Rate : 325k
Sample Encoding: MPEG audio (layer I, II or III)
Comments :
Title=Birds of Hate
Artist=Across the Shade
Album=Hope
Tracknumber=4
Year=2019-09-13
Discnumber=1



Register


Go to the top of the page
  Insert nick Quick quote
+Quote Post
 
Start new topic
Replies (1 - 1)
post Sep 13 2019, 09:23:14
Post #2

Два Литра
**
Group: Завсегдатай
Posts: 155
Releases: 1
On Forums: 1 year 4 months
Thanks: 102 time(s)
Russian Federation


Конечно, жанр уже давно не предвещает чего-то интересного, но альбом включил. Второй трек порадовал неплохой мелодикой, послушаем дальше. А вдруг.
Go to the top of the page
  Insert nick Quick quote
+Quote Post

Reply to this topicStart new topic
1 User(s) are reading this topic (1 Guests and 0 Anonymous Users)
0 Members:

 



- Lo-Fi Version Support form
Copyrights and abuse reports form
Time is now: 21st September 2019 - 05:57:54