Welcome Guest ( Log In | Register )

> Across The Shade - Hope (2019), Melodic Death Metal
post Sep 13 2019, 01:54:28
Post #1

Правь статус, ####!111
**************
Group: Металариец
Posts: 20,649
Releases: 14096
From: Г.Харьков
On Forums: 7 years 9 months
Thanks: 248793 time(s)
Unknown


(IMG:https://metalarea.org/images/audiocovers/2019_Sep/acov_tid327334_thumb.jpg)

*Artist: Across The Shade
*Album: Hope
*Year: 2019
*Genre: Melodic Death Metal
*Country: Poland (IMG:https://metalarea.org/forum/style_images/flags/Poland.png)
*Format: mp3@CBR320kbps
*Size: 80MB

Tracklist:
01. Hope
02. Winter Is Coming
03. Across the Shade
04. Birds of Hate
05. Bloody Roam
06. Burden
07. Rust n Snow
08. Rotting Tears
******************************
Total playing time: 34:30




Extended info
Bartek Pawlik Bass
Marcin Rzeźniczek Drums
Luq Guitars
Kamil Sikorski Vocals, Guitars (2014-present)


Technical info
(IMG:https://metalarea.org/images/spectrogram/2019_Sep/5c28b5269cf54c5927d22b10b7b9443c.png)
Input File: 04. Birds of Hate.mp3
Channels : 2
Sample Rate : 44100
Precision : 16-bit
Duration : 00:05:13.83 = 13839859 samples = 23537.2 CDDA sectors
File Size : 12.7M
Bit Rate : 325k
Sample Encoding: MPEG audio (layer I, II or III)
Comments :
Title=Birds of Hate
Artist=Across the Shade
Album=Hope
Tracknumber=4
Year=2019-09-13
Discnumber=1



Register


Go to the top of the page
  Insert nick Quick quote
+Quote Post
 
Start new topic
Replies (1 - 2)
post Sep 13 2019, 09:23:14
Post #2

Три Литра
***
Group: Завсегдатай
Posts: 213
Releases: 1
On Forums: 1 year 9 months
Thanks: 142 time(s)
Russian Federation


Конечно, жанр уже давно не предвещает чего-то интересного, но альбом включил. Второй трек порадовал неплохой мелодикой, послушаем дальше. А вдруг.
Go to the top of the page
  Insert nick Quick quote
+Quote Post
post Sep 22 2019, 07:00:31
Post #3

Ъ
**************
Group: Металариец
Posts: 9,921
Releases: 9
On Forums: 11 years 1 month
Thanks: 1967 time(s)
Sweden


Ссылка мертва, в принципе и по превью понятно, что это третьесортный инсомниум.
Go to the top of the page
  Insert nick Quick quote
+Quote Post

Reply to this topicStart new topic
1 User(s) are reading this topic (1 Guests and 0 Anonymous Users)
0 Members:

 



- Lo-Fi Version Support form
Copyrights and abuse reports form
Time is now: 22nd February 2020 - 01:54:15