Welcome Guest ( Log In | Register )

> Releases Upload / Добавление релизов

Добавить релиз тут / Click here to add release
Рекомендованные обменники / Recommended file shares

 
Reply to this topicStart new topic
> The Breaching Experiment - E.O.W. (2019), Progressive/Heavy Metal
post Sep 13 2019, 02:25:59
Post #1

Правь статус, ####!111
**************
Group: Металариец
Posts: 18,575
Releases: 12575
From: Г.Харьков
On Forums: 7 years 4 months
Thanks: 213043 time(s)
Unknown


(IMG:https://metalarea.org/images/audiocovers/2019_Sep/acov_tid327335_thumb.jpg)

*Artist: The Breaching Experiment
*Album: E.O.W.
*Year: 2019
*Genre: Progressive/Heavy Metal
*Country: Sweden (IMG:https://metalarea.org/forum/style_images/flags/Sweden.png)
*Format: mp3@CBR320kbps
*Size: 87MB

Tracklist:
01. Growth Machine
02. Elements of a Theory of Transformation
03. Conform and Confirm
04. The Compass
05. A Reality of Harms
06. Rupture
07. Dandelions
08. The Generic Swede
09. Real Utopias
******************************
Total playing time: 37:48

(IMG:https://metalarea.org/images/youtube.png)


Technical info
(IMG:https://metalarea.org/images/spectrogram/2019_Sep/b6332489e560f869b4c0758d43034a50.png)
Input File: 4 - The Compass.mp3
Channels : 2
Sample Rate : 44100
Precision : 16-bit
Duration : 00:05:24.22 = 14298234 samples = 24316.7 CDDA sectors
File Size : 13.0M
Bit Rate : 322k
Sample Encoding: MPEG audio (layer I, II or III)
Comments :
Title=The Compass
Artist=The Breaching Experiment
Album=E.O.W.
Tracknumber=4
Year=2019
Genre=Rock/Metal
Discnumber=1



Register


Go to the top of the page
  Insert nick Quick quote
+Quote Post

Reply to this topicStart new topic
1 User(s) are reading this topic (1 Guests and 0 Anonymous Users)
0 Members:

 



- Lo-Fi Version Support form
Copyrights and abuse reports form
Time is now: 21st September 2019 - 06:06:16