Welcome Guest ( Log In | Register )

> Releases Upload / Добавление релизов

Добавить релиз тут / Click here to add release
Рекомендованные обменники / Recommended file shares

> Age Of Nefarious - Bad Timing (2019), Speed/Thrash Metal
post Sep 13 2019, 03:14:55
Post #1

Правь статус, ####!111
**************
Group: Металариец
Posts: 18,575
Releases: 12575
From: Г.Харьков
On Forums: 7 years 4 months
Thanks: 213050 time(s)
Unknown


(IMG:https://metalarea.org/images/audiocovers/2019_Sep/acov_tid327336_thumb.jpg)

*Artist: Age Of Nefarious
*Album: Bad Timing
*Year: 2019
*Genre: Speed/Thrash Metal
*Country: Sweden (IMG:https://metalarea.org/forum/style_images/flags/Sweden.png)
*Format: mp3@CBR320kbps
*Size: 98MB

Tracklist:
1. Revenge of the Chicken Noodle Soup 2016 04:36 instrumental
2. Hate Deeds 05:14
3. Discussed It 06:03
4. Erectile Disjunction 04:36
5. Sniper Faction 07:22
6. Demeaning of Life 04:58
7. Generals 03:12
8. Euro Schema 06:26
******************************
Total playing time: 42:27




Extended info
Anders Lindberg Guitars (2016-present)
See also: Excöriator, Gaslarm, HeadQuaker, Psychotrone, Secret Attack, The Porridgeface


Technical info
(IMG:https://metalarea.org/images/spectrogram/2019_Sep/5f3df4033a9e06af334bfb30c2349d19.png)
Input File: 03 - Discussed It.mp3
Channels : 2
Sample Rate : 44100
Precision : 16-bit
Duration : 00:06:03.59 = 16034407 samples = 27269.4 CDDA sectors
File Size : 14.6M
Bit Rate : 322k
Sample Encoding: MPEG audio (layer I, II or III)
Comments :
Title=Discussed It
Artist=Age of Nefarious
Album=Bad Timing
Tracknumber=3
Year=2019-09-07
Genre=Alternative; Rock
Discnumber=1



Register


Go to the top of the page
  Insert nick Quick quote
+Quote Post
 
Start new topic
Replies (1 - 2)
post Sep 14 2019, 16:36:57
Post #2

Правь статус (ну неее... лень-матушка)
**************
Group: Металариец
Posts: 10,707
Releases: 0
From: Киев
On Forums: 11 years 8 months
Thanks: 6008 time(s)
Unknown


ЦИТАТА(Samaritianin @ Sep 13 2019, 07:14:55) *
Revenge of the Chicken Noodle Soup 2016 04:36

(IMG:style_emoticons/default/hmm.gif)


Thanks:
(1) Ghostb,
Go to the top of the page
  Insert nick Quick quote
+Quote Post
post Sep 15 2019, 00:35:35
Post #3

Литр
*
Group: Подсевший
Posts: 51
Releases: 0
On Forums: 3 years 1 month
Thanks: 6 time(s)
Unknown


голимый панк....фууу


Thanks:
(1) Darkness,
Go to the top of the page
  Insert nick Quick quote
+Quote Post

Reply to this topicStart new topic
1 User(s) are reading this topic (1 Guests and 0 Anonymous Users)
0 Members:

 



- Lo-Fi Version Support form
Copyrights and abuse reports form
Time is now: 21st September 2019 - 06:14:12