Welcome Guest ( Log In | Register )

> Releases Upload / Добавление релизов

Добавить релиз тут / Click here to add release
Рекомендованные обменники / Recommended file shares

> Dold Vorde Ens Navn - Gjengangere I Hjertets Mørke [ep] (2019), Black Metal
post Sep 13 2019, 05:31:40
Post #1

Три Литра
***
Group: Завсегдатай
Posts: 295
Releases: 157
On Forums: 7 years 1 month
Thanks: 3838 time(s)
Unknown


(IMG:http://metalarea.org/images/audiocovers/2019_Sep/acov_tid327342_thumb.jpg)

*Artist: Dold Vorde Ens Navn
*Album: Gjengangere I Hjertets Mørke [ep]
*Year: 2019
*Genre: Black Metal
*Country: Norway (IMG:http://metalarea.org/forum/style_images/flags/Norway.png)
*Format: mp3@CBR320kbps
*Size: 46MB

Tracklist:
01. Den Ensomme Død
02. Drukkenskapens Kirkegård
03. Vitnesbyrd
04. Blodets Hvisken
******************************
Total playing time: 20:46

Preview 1
(IMG:http://metalarea.org/images/youtube.png)

Extended info
The Oslo breed featuring Håvard Jørgensen (aka Haavard and Lemarchand, co-founding member of Satyricon and early Ulver member), Vicotnik (Dødheimsgard, Ved Buens Ende), Cerberus (ex- Dødheimsgard) and Myrvoll (Nidingr) has risen to bring forth a fresh and unique Norwegian Black Metal sound often reminding of the early nineties and its purity.


Technical info
(IMG:http://metalarea.org/images/spectrogram/2019_Sep/d51c80eac092a8138044b5d922eab78e.png)
Input File: 1 - Den Ensomme Død.mp3
Channels : 2
Sample Rate : 44100
Precision : 16-bit
Duration : 00:05:46.93 = 15299393 samples = 26019.4 CDDA sectors
File Size : 13.9M
Bit Rate : 321k
Sample Encoding: MPEG audio (layer I, II or III)
Comments :
Title=Den Ensomme Død
Artist=Dold Vorde Ens Navn
Album=Gjengangere i hjertets mørke
Tracknumber=1
Year=2019
Genre=Rock;Hard Rock;Metal
Discnumber=1



Register


Go to the top of the page
  Insert nick Quick quote
+Quote Post
 
Start new topic
Replies (1 - 1)
post Sep 14 2019, 15:03:47
Post #2

De Mysteriis Dom Sathanas
**************
Group: Металариец
Posts: 3,688
Releases: 63
From: Doom
On Forums: 11 years 3 months
Thanks: 3091 time(s)
Russian Federation


Известные дядечки в проекте, по-любому надо хотя бы послушать
Намеки на DHG и VBE несомненны
Прогнал 2 раза и могу сказать, что это самый наи3.14здатейший релиз(лично для меня), появившийся за последние месяцы на металарее. Есть правда один минус - мало, катастрофически мало - вот бы полноформатник нарулили дядечки

This post has been edited by RUSP73: Sep 14 2019, 21:19:11


Thanks:
(1) targonium,
Go to the top of the page
  Insert nick Quick quote
+Quote Post

Reply to this topicStart new topic
1 User(s) are reading this topic (1 Guests and 0 Anonymous Users)
0 Members:

 



- Lo-Fi Version Support form
Copyrights and abuse reports form
Time is now: 17th October 2019 - 16:23:08