Welcome Guest ( Log In | Register )

> Releases Upload / Добавление релизов

Добавить релиз тут / Click here to add release
Рекомендованные обменники / Recommended file shares

 
Reply to this topicStart new topic
> Sangre Maldita - Necromusa (2016), Gothic/Dark/Death Metal
post Sep 13 2019, 06:50:56
Post #1

In Reality Suffer
Group Icon
Group: Moderation team
Posts: 5,160
Releases: 447
From: Iran
On Forums: 10 years 5 months
Thanks: 12461 time(s)
Iran


(IMG:https://metalarea.org/images/audiocovers/2019_Sep/acov_tid327346_thumb.jpg)

*Artist: Sangre Maldita
*Album: Necromusa
*Year: 2016
*Genre: Gothic/Dark/Death Metal
*Country: Mexico (IMG:https://metalarea.org/forum/style_images/flags/Mexico.png)
*Format: mp3@CBR320kbps
*Size: 137MB

Tracklist:
1. Necromusa 03:55
2. Luna gótica 05:16
3. Ataúd 06:31
4. Caníbal de almas 05:25
5. Enterrado vivo 03:36
6. Nunca más 04:49
7. Ángel del infierno 04:25
8. Camaxtli 05:15
9. Los estandartes del infierno 05:01
10. Reina del infierno 04:18
******************************
Total playing time: 48:31

Technical info
(IMG:https://metalarea.org/images/spectrogram/2019_Sep/3c516eb8f98f15f153af8fbe0106f31f.png)
Input File: 01 Necromusa-001.mka
Channels : 2
Sample Rate : 44100
Precision : 16-bit
Duration : 00:00:30.23 = 1333275 samples = 2267.47 CDDA sectors
File Size : 1.21M
Bit Rate : 320k
Sample Encoding: MPEG audio (layer I, II or III)



Register


Go to the top of the page
  Insert nick Quick quote
+Quote Post

Reply to this topicStart new topic
1 User(s) are reading this topic (1 Guests and 0 Anonymous Users)
0 Members:

 



- Lo-Fi Version Support form
Copyrights and abuse reports form
Time is now: 21st September 2019 - 05:39:21